Процесс и ошибка / Trial and Error (Джонатан Линн) [1997, США, Мелодрама, комедия, DVDRip] (MVO)

Ответить на тему
 

Decadence ®

Стаж: 5 лет

Сообщений: 65

Симпатии: 32

Процесс и ошибка / Trial and Error
Страна: США
Жанр: Мелодрама, комедия
Год выпуска: 1997
Продолжительность: 01:38:12
Перевод: Профессиональный (многоголосый закадровый)
Cубтитры: нет
Режиссер: Джонатан Линн
В ролях: Майкл Ричардс, Джефф Дэниелс, Шарлиз Терон, Джессика Стин, Остин Пендлтон, Рип Торн, Александра Уэнтуорт, Дженнифер Кулидж, Лоуренс Прессман, Дейл Дай
Описание: Профессиональный адвокат Чарльз Туттл должен защищать в суде интересы Бенни, погоревшего на мошенничестве.
Буквально за день до начала процесса Чарльз напивается и оказывается не в состоянии быть в суде, поэтому он просит своего друга, актера — неудачника Рикки Ритти, «подменить» его на слушании…
Перевоплотившись в адвоката, Рикки приходит в суд…
 
Качество видео: DVDRip
Формат видео: AVI
Видео: XviD, 608x304, 23.976 fps, 924 kbps
Аудио: MP3, 48.0 KHz, 2 channels, 128 kbps

MediaInfo

General
Complete name : Trial And Error.avi
Format : AVI
Format/Info : Audio Video Interleave
File size : 745 MiB
Duration : 1h 38mn
Overall bit rate : 1 061 Kbps
Writing application : VirtualDubMod 1.5.10.3 | www.virtualdub-fr.org || (build 2550/release)
Writing library : VirtualDubMod build 2550/release
Video #0
ID : 0
Format : MPEG-4 Visual
Format profile : Advanced [email protected]
Format settings, BVOP : 1
Format settings, QPel : No
Format settings, GMC : No warppoints
Format settings, Matrix : Custom
Codec ID : XVID
Codec ID/Hint : XviD
Duration : 1h 38mn
Bit rate : 924 Kbps
Width : 608 pixels
Height : 304 pixels
Display aspect ratio : 2.000
Frame rate : 23.976 fps
Color space : YUV
Chroma subsampling : 4:2:0
Bit depth : 8 bits
Scan type : Progressive
Compression mode : Lossy
Bits/(Pixel*Frame) : 0.208
Stream size : 649 MiB (87%)
Writing library : XviD 1.2.1 (UTC 2008-12-04)
Audio #1
ID : 1
Format : MPEG Audio
Format version : Version 1
Format profile : Layer 3
Codec ID : 55
Codec ID/Hint : MP3
Duration : 1h 38mn
Bit rate mode : Constant
Bit rate : 128 Kbps
Channel(s) : 2 channels
Sampling rate : 48.0 KHz
Compression mode : Lossy
Stream size : 89.8 MiB (12%)
Alignment : Aligned on interleaves
Interleave, duration : 42 ms (1.00 video frame)
Interleave, preload duration : 504 ms
Writing library : LAME3.98r
Encoding settings : -m s -V 4 -q 2 -lowpass 17 -b 128

Скриншот c названием фильма

Скриншоты



Создавать темы 25-Май-2015 20:29

[Профиль]  [ЛС] 
Показать сообщения:    
Ответить на тему

Текущее время: 23-Сен 01:49

Часовой пояс: UTC + 5



Вы не можете начинать темы
Вы не можете отвечать на сообщения
Вы не можете редактировать свои сообщения
Вы не можете удалять свои сообщения
Вы не можете голосовать в опросах
Вы не можете прикреплять файлы к сообщениям
Вы не можете скачивать файлы