Проснувшись в Рино / Waking Up in Reno (Джордан Брэйди) [2001, США, Мелодрама, комедия, HDTVRip] (MVO)

Ответить на тему
 

Decadence ®

Стаж: 4 года 11 месяцев

Сообщений: 65

Симпатии: 32

Проснувшись в Рино / Waking Up in Reno
Страна: США
Жанр: Мелодрама, комедия
Год выпуска: 2001
Продолжительность: 01:30:44
Перевод: Профессиональный (многоголосый закадровый)
Cубтитры: нет
Режиссер: Джордан Брэйди
В ролях: Билли Боб Торнтон, Шарлиз Терон, Патрик Суэйзи, Наташа Ричардсон, Холмс Осборн, Билли О’Салливан, Галвин Чэпман, Келси Чепмен, Клео Кинг, Челси Росс
Описание: Кэнди и Лонни Ирл без ума друг от друга. Единственная проблема — она замужем за Роем, а он женат на Дарлен. До поры до времени любовный роман Кэнди и Лонни был тайной за семью печатями.
Но ситуация меняется, когда все четверо отправляются через всю страну из Арканзаса в Рено, штат Невада, на шоу гигантских грузовиков. В пути супругов ожидают большие неожиданности.
 
Качество видео: HDTVRip
Формат видео: AVI
Видео: DivX, 720x400, 23.976 fps, 1009 kbps
Аудио: MP3, 48.0 KHz, 2 channels, 128 kbps

MediaInfo

General
Complete name : Waking Up In Reno.avi
Format : AVI
Format/Info : Audio Video Interleave
File size : 744 MiB
Duration : 1h 30mn
Overall bit rate : 1 147 Kbps
Writing application : VirtualDubMod 1.5.10.2 (build 2540/release)
Writing library : VirtualDubMod build 2540/release
Video #0
ID : 0
Format : MPEG-4 Visual
Format profile : Advanced [email protected]
Format settings, BVOP : 1
Format settings, QPel : No
Format settings, GMC : No warppoints
Format settings, Matrix : Custom
Codec ID : DX50
Codec ID/Hint : DivX 5
Duration : 1h 30mn
Bit rate : 1 009 Kbps
Width : 720 pixels
Height : 400 pixels
Display aspect ratio : 16:9
Frame rate : 23.976 fps
Color space : YUV
Chroma subsampling : 4:2:0
Bit depth : 8 bits
Scan type : Progressive
Compression mode : Lossy
Bits/(Pixel*Frame) : 0.146
Stream size : 655 MiB (88%)
Writing library : XviD 1.2.1 (UTC 2008-12-04)
Audio #1
ID : 1
Format : MPEG Audio
Format version : Version 1
Format profile : Layer 3
Mode : Joint stereo
Mode extension : MS Stereo
Codec ID : 55
Codec ID/Hint : MP3
Duration : 1h 30mn
Bit rate mode : Constant
Bit rate : 128 Kbps
Channel(s) : 2 channels
Sampling rate : 48.0 KHz
Compression mode : Lossy
Stream size : 83.1 MiB (11%)
Alignment : Aligned on interleaves
Interleave, duration : 42 ms (1.00 video frame)
Interleave, preload duration : 504 ms
Writing library : LAME3.98r
Encoding settings : -m j -V 4 -q 2 -lowpass 17 -b 128

Скриншот c названием фильма

Скриншоты



Создавать темы 25-Май-2015 21:37

[Профиль]  [ЛС] 
Показать сообщения:    
Ответить на тему

Текущее время: 21-Авг 13:32

Часовой пояс: UTC + 5



Вы не можете начинать темы
Вы не можете отвечать на сообщения
Вы не можете редактировать свои сообщения
Вы не можете удалять свои сообщения
Вы не можете голосовать в опросах
Вы не можете прикреплять файлы к сообщениям
Вы не можете скачивать файлы