Все еще Элис / Still Alice (Ричард Глацер, Уош Уэстмоленд) [2014, США, Франция, драма, HDRip] MVO (Лицензия)

Ответить на тему
 

lotto ®

Стаж: 7 лет 8 месяцев

Сообщений: 221

Симпатии: 409

Все еще Элис / Still Alice-- Страна: США, Франция
Жанр: драма
Год выпуска: 2014
Продолжительность: 01:41:38
Перевод: Профессиональный (многоголосый закадровый) Лицензия
Cубтитры: нет--Режиссер: Ричард Глацер, Уош Уэстмоленд
В ролях: Джулианна Мур, Алек Болдуин, Кристен Стюарт, Кейт Босворт, Хантер Пэрриш, Виктория Картагена, Эрин Майя Дарк, Шэйн МакРей, Стефан Канкен, Эха Урбсалу--Описание: Элис Хаулэнд — известный профессор лингвистики. Она счастлива в браке, у нее трое взрослых детей. Но все меняется, когда однажды она начинает забывать слова…-- --Качество видео: HDRip
Формат видео: AVI
Видео: XviD, 1540 kb/s, 720x384, 23.976 fps
Аудио: AC3, 48 KHz, 6 ch, 384 kb/s (русский, многоголосый)

MediaInfo

General
Complete name : /Загрузки/Still.Alice.2014.P.HDRip.1400Mb.avi
Format : AVI
Format/Info : Audio Video Interleave
File size : 1.37 GiB
Duration : 1h 41mn
Overall bit rate : 1 933 Kbps
Writing application : VirtualDubMod 1.5.10.2 (build 2540/release)
Writing library : VirtualDubMod build 2540/release
Video
ID : 0
Format : MPEG-4 Visual
Format profile : Advanced [email protected]
Format settings, BVOP : 2
Format settings, QPel : No
Format settings, GMC : No warppoints
Format settings, Matrix : Default (MPEG)
Codec ID : XVID
Codec ID/Hint : XviD
Duration : 1h 41mn
Bit rate : 1 540 Kbps
Width : 720 pixels
Height : 384 pixels
Display aspect ratio : 1.85:1
Frame rate : 23.976 fps
Color space : YUV
Chroma subsampling : 4:2:0
Bit depth : 8 bits
Scan type : Progressive
Compression mode : Lossy
Bits/(Pixel*Frame) : 0.232
Stream size : 1.09 GiB (80%)
Writing library : XviD 1.2.1 (UTC 2008-12-04)
Audio
ID : 1
Format : AC-3
Format/Info : Audio Coding 3
Mode extension : CM (complete main)
Format settings, Endianness : Big
Codec ID : 2000
Duration : 1h 41mn
Bit rate mode : Constant
Bit rate : 384 Kbps
Channel(s) : 6 channels
Channel positions : Front: L C R, Side: L R, LFE
Sampling rate : 48.0 KHz
Bit depth : 16 bits
Compression mode : Lossy
Stream size : 278 MiB (20%)
Alignment : Split accross interleaves
Interleave, duration : 42 ms (1.00 video frame)
Interleave, preload duration : 500 ms

Скриншот c названием фильма

Скриншоты





Создавать темы 26-Май-2015 10:58

[Профиль]  [ЛС] 
Показать сообщения:    
Ответить на тему

Текущее время: 20-Сен 21:17

Часовой пояс: UTC + 5



Вы не можете начинать темы
Вы не можете отвечать на сообщения
Вы не можете редактировать свои сообщения
Вы не можете удалять свои сообщения
Вы не можете голосовать в опросах
Вы не можете прикреплять файлы к сообщениям
Вы не можете скачивать файлы