Правда. Цель 102 (Олег Джураев) [2015, Россия, Боевик, военный, HDRip]

Ответить на тему
 

RecobaZico ®

Стаж: 2 года 6 месяцев

Сообщений: 22

Симпатии: 94

Правда. Цель 102 Страна: Россия
Студия: Белый Аист
Жанр: Боевик, военный
Год выпуска: 2015
Продолжительность: 01:07:06-Перевод: Не требуется
Cубтитры: нет
Режиссер: Олег Джураев-В ролях: Мария Авраменко, Василий Щипицын, Станислав Ананьин, Алексей Переберин, Роман Юрченко...-Описание: Съемочная группа из России, попали в Славянск во время его захвата нацгвардией Украины.Машина с журналистами попадает под минометный обстрел. Из четырех человек выживает лишь репортер российского телеканала Анна Романенко.
Два бойца из группы прикрытия отошедших защитников Славянска пытаются покинуть захваченный украинской нацгвардией город. Пути к отступлению уже отрезаны. На площади бойцы находят чудом уцелевшую под бомбежкой журналистку новостного канала и решают выбираться из окружения под видом телегруппы… Киноленту посвятили военным журналистам, работающим в зоне боевых действий на Украине.-Доп. информация: Фильм, основанный на реальных событиях, рассказывает о судьбе съемочной группы ВГТРК, которая 17 июня прошлого года попала под минометный обстрел в районе поселка Счастье на Украине. Журналисты совместно с ополченцами выводили мирное население из зоны боевых действий. В результате обстрела погибли корреспондент Игорь Корнелюк и видеоинженер Антон Волошин. Оператор съемочной группы Виктор Денисов не пострадал.
Вторая часть названия киноленты — «Цель 102». Это еще одна параллель с реальными событиями на Украине. в фильме рассказывается о минометном обстреле, а снайпер Люба, ассоциируется с украинской летчицей Надеждой Савченко.
Прототип героя на самом деле жив — это командир севастопольского Беркута. По мнению российского спецназовца Романа Юрченко, за плечами которого множество командировок на Северный Кавказ, настоящие герои на войне далеко не те, кто стреляет друг в друга.
Важно то, что кинолента была снята за народные деньги. Создателям боевика на реализацию творческого замысла удалось собрать 600 тысяч рублей. Правда, актеры играли бесплатно, а режиссером стал начальник пресс-службы погрануправления ФСБ по Калининградской области Олег Джураев.
Правда. Цель 102: Калининградские Спецназовцы сняли фильм о военных корреспондентах на Украине.
В Калининграде состоялась премьера художественного фильма «Правда, Цель 102», рассказывающего о событиях в Донбассе. Киноленту посвятили военным журналистам, работающим в зоне боевых действий на Украине. Боевик сняли бойцы ОМОНа и пограничники...-Качество видео: HDRip
Формат видео: AVI-Видео: 688x384 (1.79:1), 23.976 fps, XviD build 73 ~1405 kbps avg, 0.22 bit/pixel
Аудио: 48 kHz, MPEG Layer 3, 2 ch, ~128.00 kbps avg

MediaInfo

Location: D:\Рекоба2015\Pravda.Cel'.102.2015.HDRip.740.avi
Filename: Pravda.Cel'.102.2015.HDRip.740.avi
File format: .avi (AVI)
File size: 740.52 MB
Duration: 1h 7mn
Navigate by chapters: Nope
Bitrate (all streams): 1 543 Kbps
...with: VirtualDubMod 1.5.10.3 | www.virtualdub-fr.org || (build 2550/release)
...by using: VirtualDubMod build 2550/release
Title: Pravda.Cel'.102.2015.HDRip.740
Stream type: Video
Duration: 01:07:06
Codec: MPEG-4 Visual
Codec Profile: Advanced [email protected]
Codec ID: XVID
Video Size: 688 x 384 (16:9)
Frame rate: 23.976 fps
Stream size: 675 MiB (91%)
Bitrate: 1 405 Kbps
Codec library: XviD 73
Colorspace: YUV
Scantype: Progressive
Bitdepth: 8 bits
Stream type: Audio #1
Duration: 01:07:06.912
Codec: MPEG Audio
Codec Profile: Layer 3
Codec ID: 55
Samplerate: 48.0 KHz
Channels: 2 channels
Bitrate: 128 Kbps
Bitrate/Mode: Constant
Stream size: 61.4 MiB (8%)
Compression mode: Lossy
Encode software: LAME3.99r
Encode settings: -m s -V 4 -q 2 -lowpass 17 -b 128

Скриншот c названием фильма

Скриншоты



Создавать темы 27-Май-2015 08:46

[Профиль]  [ЛС] 

Топик был перенесен из форума Фильмы за 2015 в форум Фильмы за 2015
LUKA

Создавать темы 27-Май-2015 09:27

 

eldor_84

Стаж: 5 лет 2 месяца

Сообщений: 29

Симпатии: 1

дааа, еще одна щняга показывающая окупантов невинными

Создавать темы 29-Май-2015 21:30

[Профиль]  [ЛС] 

bes_t

Стаж: 6 лет 7 месяцев

Сообщений: 74

Симпатии: 11

укропы завелись на уз-трекерах?

Создавать темы 29-Май-2015 22:54

[Профиль]  [ЛС] 
Показать сообщения:    
Ответить на тему

Текущее время: 18-Ноя 22:47

Часовой пояс: UTC + 5



Вы не можете начинать темы
Вы не можете отвечать на сообщения
Вы не можете редактировать свои сообщения
Вы не можете удалять свои сообщения
Вы не можете голосовать в опросах
Вы не можете прикреплять файлы к сообщениям
Вы не можете скачивать файлы