Добро пожаловать ко мне / Welcome to Me (Шира Пивен) [2014, США, драма, комедия, HDRip] (AVO : [А. Глинский]) (Original Eng)

Ответить на тему
 

akmal-19-66 ®

Стаж: 2 года 7 месяцев

Сообщений: 23

Симпатии: 120

Добро пожаловать ко мне / Welcome to Me
Страна: США
Жанр: драма, комедия
Год выпуска: 2014
Продолжительность: 01:27:11-Перевод: Авторский (одноголосый закадровый) [А. Глинский]
Cубтитры: нет
Оригинальная аудиодорожка: английский-Режиссер: Шира Пивен-В ролях: Кристен Уиг, Уэс Бентли, Линда Карделлини, Джоан Кьюсак, Лоретта Дивайн, Дженнифер Джейсон Ли, Томас Манн, Джеймс Марсден, Тим Роббинс, Алан Тьюдик-Описание: Сюжет расскажет о женщине с диссоциативным расстройством личности, которая выигрывает в лотерею и решает потратить все свои деньги на собственное телешоу, рассказывающее о ее жизни.-Качество видео: HDRip
Формат видео: AVI-Видео: XviD, 1848 kb/s, 720x400
Аудио: Dolby AC3 48000Hz stereo 192kbps
Аудио 2: Dolby AC3 48000Hz stereo 192kbps

MediaInfo

General
Complete name : E:\download\strannaya\Welcome.to.Me.2014.A1.HDRip.1400Mb.avi
Format : AVI
Format/Info : Audio Video Interleave
File size : 1.37 GiB
Duration : 1h 27mn
Overall bit rate : 2 246 Kbps
Writing application : VirtualDubMod 1.5.10.2 (build 2540/release)
Writing library : VirtualDubMod build 2540/release
Video
ID : 0
Format : MPEG-4 Visual
Format profile : Advanced [email protected]
Format settings, BVOP : Yes
Format settings, QPel : No
Format settings, GMC : No warppoints
Format settings, Matrix : Default (MPEG)
Codec ID : XVID
Codec ID/Hint : XviD
Duration : 1h 27mn
Bit rate : 1 848 Kbps
Width : 720 pixels
Height : 400 pixels
Display aspect ratio : 16:9
Frame rate : 23.976 fps
Color space : YUV
Chroma subsampling : 4:2:0
Bit depth : 8 bits
Scan type : Progressive
Bits/(Pixel*Frame) : 0.268
Stream size : 1.13 GiB (82%)
Writing library : XviD 1.2.1 (UTC 2008-12-04)
Audio #1
ID : 1
Format : AC-3
Format/Info : Audio Coding 3
Mode extension : CM (complete main)
Codec ID : 2000
Duration : 1h 27mn
Bit rate mode : Constant
Bit rate : 192 Kbps
Channel(s) : 2 channels
Channel positions : Front: L R
Sampling rate : 48.0 KHz
Stream size : 120 MiB (9%)
Alignment : Split accross interleaves
Interleave, duration : 42 ms (1.00 video frame)
Interleave, preload duration : 500 ms

Скриншоты




Создавать темы 27-Май-2015 13:13

[Профиль]  [ЛС] 

pirat

Стаж: 5 лет 7 месяцев

Сообщений: 216

Симпатии: 63

Постер шикарный!!!

Создавать темы 29-Май-2015 18:53

[Профиль]  [ЛС] 
Показать сообщения:    
Ответить на тему

Текущее время: 18-Дек 06:30

Часовой пояс: UTC + 5



Вы не можете начинать темы
Вы не можете отвечать на сообщения
Вы не можете редактировать свои сообщения
Вы не можете удалять свои сообщения
Вы не можете голосовать в опросах
Вы не можете прикреплять файлы к сообщениям
Вы не можете скачивать файлы