С любовью, Рози / Love, Rosie (Кристиан Диттер / Christian Ditter) [2014, Германия, Великобритания, мелодрама, комедия, HDRip] (Dub : Чистый звук)

Ответить на тему
 

RecobaZico ®

Стаж: 2 года 5 месяцев

Сообщений: 22

Симпатии: 94

С любовью, Рози / Love, Rosie
«Sometimes, the right love comes at the wrong time» Страна: Германия, Великобритания
Жанр: мелодрама, комедия
Год выпуска: 2014
Продолжительность: 01:42:57-Перевод: Профессиональный (дублированный) [Чистый звук]
Cубтитры: нет
Режиссер: Кристиан Диттер / Christian Ditter-В ролях: Сэм Клафлин, Лили Коллинз, Сьюки Уотерхаус, Тэмзин Эджертон, Арт Паркинсон, Кристиан Кук, Джэми Уинстон, Лили Лэйт, Ник Ли, Джейк Мэнли-Описание: Рози и Алекс были лучшими друзьями с детства, и теперь, по окончании школы, собираются вместе продолжить учебу в университете.
Однако в их судьбах происходит резкий поворот, когда после ночи со звездой школы Рози узнает, что у нее будет ребенок. Невзирая на то, что обстоятельства и жизненные ситуации разлучают героев, они и спустя годы продолжают помнить друг о друге и о том чувстве, что соединило их в юности…-Рейтинги:
 -Качество видео: HDRip
Формат видео: AVI-Видео: 720x304 (2.37:1), 23.976 fps, XviD build 73 ~1625 kbps avg, 0.31 bit/pixel
Аудио: 48 kHz, AC3 Dolby Digital, 3/2 (L,C,R,l,r) + LFE ch, ~384 kbps

Знаете ли вы, что...

• Экранизация романа Сесилии Ахерн «Там, где заканчивается радуга» (Where Rainbows End). В США роман известен под названиями «С любовью, Рози» (Love, Rosie) и «Рози Данн» (Rosie Dunne).
• В фильме, в отличие от романа, описываемые события происходят в течение 12 лет, а не за 50.

Ошибки в фильме

• Многие автомобили, показанные в фильме, не соответствуют времени описываемых событий.

MediaInfo

Location: D:\Рекоба2015\Love.Rosie.2014_HDRip_dub[tas-ix.net].avi
Filename: Love.Rosie.2014_HDRip_dub[tas-ix.net].avi
File format: .avi (AVI)
File size: 1.45 GB
Duration: 1h 42mn
Navigate by chapters: Nope
Bitrate (all streams): 2 015 Kbps
...with: VirtualDubMod 1.5.10.2 (build 2540/release)
...by using: VirtualDubMod build 2540/release
Title: Love.Rosie.2014_HDRip_dub[tas-ix.net]
Stream type: Video
Duration: 01:42:57
Codec: MPEG-4 Visual
Codec Profile: Advanced Simple@L5
Codec ID: XVID
Video Size: 720 x 304 (2.35:1)
Frame rate: 23.976 fps
Stream size: 1.17 GiB (80%)
Bitrate: 1 622 Kbps
Codec library: XviD 73
Colorspace: YUV
Scantype: Progressive
Bitdepth: 8 bits
Stream type: Audio #1
Duration: 01:42:57.171
Codec: AC-3
Codec ID: 2000
Samplerate: 48.0 KHz
Channels: 2 channels
Bitrate: 384 Kbps
Bitrate/Mode: Constant
Stream size: 283 MiB (19%)
Bitdepth: 16 bits
Compression mode: Lossy

Скриншот c названием фильма

Скриншоты



Создавать темы 27-Май-2015 16:56

[Профиль]  [ЛС] 

dilshod5254

Стаж: 6 лет 6 месяцев

Сообщений: 106

Симпатии: 14

судя по скриншотам тут у нас очень яркий фильм. надеюсь не разочарует)))

Создавать темы 27-Май-2015 19:57

[Профиль]  [ЛС] 

trojan

Стаж: 4 года 9 месяцев

Сообщений: 35

Симпатии: 2

встаньте на раздачу, плиииз

Создавать темы 16-Июл-2016 20:41

[Профиль]  [ЛС] 
Показать сообщения:    
Ответить на тему

Текущее время: 23-Окт 09:05

Часовой пояс: UTC + 5



Вы не можете начинать темы
Вы не можете отвечать на сообщения
Вы не можете редактировать свои сообщения
Вы не можете удалять свои сообщения
Вы не можете голосовать в опросах
Вы не можете прикреплять файлы к сообщениям
Вы не можете скачивать файлы