Девочка из переулка / The Little Girl Who Lives Down the Lane (Николас Джесснер) [1976, Канада, Франция, триллер, драма, детектив, DVDRip] MVO

Ответить на тему
 

lotto ®

Стаж: 7 лет 7 месяцев

Сообщений: 221

Симпатии: 409

Девочка из переулка / The Little Girl Who Lives Down the Lane
«She was only a little girl. She lived in a great big house... all alone. Where is her mother?
Where is her father? Where are all the people who went to visit her? What is her unspeakable secret? Everyone who knows is dead»
-- Страна: Канада, Франция
Жанр: триллер, драма, детектив
Год выпуска: 1976
Продолжительность: 01:32:19
Перевод: Профессиональный (многоголосый закадровый)
Cубтитры: нет--Режиссер: Николас Джесснер
В ролях: Джоди Фостер, Мартин Шин, Алексис Смит, Морт Шуман, Скотт Джейкоби, Дороти Дэвис, Хьюберт Ноэль, Мэри Мортер--Описание: 13-ти летняя Ринн — смышлёная и самостоятельная для своего возраста девчушка. Она живёт в большом доме с отцом и ничего не боится. Вот только отца никто не видел, а для незваных гостей, вроде местного педофила Фрэнка Хэллета, у Ринн всегда припасены отговорки.--Доп. информация: Фильм победил в двух номинациях кинопремии Сатурна 1977 года: лучшая актриса (Джуди Фостер) и лучший фильм ужасов. При этом, сюжет фильма не имеет какой-либо мистической направленности или иных классических элементов фильма ужасов, однако, держит зрителя в достаточном напряжении.
Помимо этого фильм номинировался в категориях «Лучший режиссёр» и «Лучший сценарий».-- --Качество видео: DVDRip
Формат видео: AVI
Видео: XviD, 704x384, 1867 kbps, 23.976 fps
Аудио: AC3, 48 kHz, 6 ch, 384 kbps

MediaInfo

General
Complete name : /devochka.jivuschaja.vniz.po.pereulku.1976.dvdrip.ac3.1450mb.by.riperrr.avi
Format : AVI
Format/Info : Audio Video Interleave
File size : 1.46 GiB
Duration : 1h 32mn
Overall bit rate : 2 260 Kbps
Movie name : devochka.jivuschaja.vniz.po.pereulku.1976.dvdrip.ac3.1450mb.by.riperrr
Writing application : VirtualDubMod 1.5.10.3 | www.virtualdub-fr.org || (build 2550/release)
Copyright : riperrr [RG Allfilms rutracker.org]
Video
ID : 0
Format : MPEG-4 Visual
Format profile : Advanced [email protected]
Format settings, BVOP : 1
Format settings, QPel : No
Format settings, GMC : No warppoints
Format settings, Matrix : Custom
Codec ID : XVID
Codec ID/Hint : XviD
Duration : 1h 32mn
Bit rate : 1 867 Kbps
Width : 704 pixels
Height : 384 pixels
Display aspect ratio : 1.85:1
Frame rate : 23.976 fps
Color space : YUV
Chroma subsampling : 4:2:0
Bit depth : 8 bits
Scan type : Progressive
Compression mode : Lossy
Bits/(Pixel*Frame) : 0.288
Stream size : 1.20 GiB (83%)
Writing library : XviD 65
Audio
ID : 1
Format : AC-3
Format/Info : Audio Coding 3
Mode extension : CM (complete main)
Format settings, Endianness : Big
Codec ID : 2000
Duration : 1h 32mn
Bit rate mode : Constant
Bit rate : 384 Kbps
Channel(s) : 6 channels
Channel positions : Front: L C R, Side: L R, LFE
Sampling rate : 48.0 KHz
Bit depth : 16 bits
Compression mode : Lossy
Stream size : 254 MiB (17%)
Alignment : Split accross interleaves
Interleave, duration : 42 ms (1.00 video frame)
Interleave, preload duration : 500 ms

Скриншот c названием фильма

Скриншоты





Создавать темы 27-Май-2015 18:38

[Профиль]  [ЛС] 
Показать сообщения:    
Ответить на тему

Текущее время: 18-Авг 13:56

Часовой пояс: UTC + 5



Вы не можете начинать темы
Вы не можете отвечать на сообщения
Вы не можете редактировать свои сообщения
Вы не можете удалять свои сообщения
Вы не можете голосовать в опросах
Вы не можете прикреплять файлы к сообщениям
Вы не можете скачивать файлы