Из машины / Ex Machina (Алекс Гарленд) [2015, Великобритания, фантастика, драма, BDRip] (Dub) (Sub Rus + Original Eng)

Ответить на тему
 

ScorpiuS ®

Стаж: 7 лет 3 месяца

Сообщений: 206

Симпатии: 122

Из машины / Ex Machina- Страна: Великобритания
Жанр: Фантастика, драма
Год выпуска: 2015
Продолжительность: 01:48:00
Перевод: Дублированный (лицензия)
Cубтитры: Русские, Английские
Оригинальная аудиодорожка: Английский-Режиссер: Алекс Гарленд-В ролях: Донал Глисон, Алисия Викандер, Оскар Айзек, Соноя Мидзуно, Кори Джонсон, Симара А. Темплмен, Тиффани Писани, Элина Алминас-Описание: В центре сюжета — молодой человек, которого нанимает миллиардер, сделавший состояние на высокотехнологичных разработках. Задача работника — провести неделю в удаленном местечке, тестируя женщину-робота с искусственным интеллектом.- 
-Качество видео: BDRip (источник: Blu-ray Disc)
Формат видео: MKV
Видео: 1280x536 (2,40:1), 23.976 fps, 4900 kbps
Аудио: AC-3, 6 ch, 448 kbps (Rus)
Аудио 2: AC-3, 6 ch, 448 kbps (Eng)

MediaInfo

General
Unique ID : 223052998746045918934740597966671086825 (0xA7CE71E80C8FFA2188441C5D2A6684E9)
Complete name : D:Ex.Machina.2015.BDRip.720p.Rus.Eng.mkv
Format : Matroska
Format version : Version 2
File size : 4.38 GiB
Duration : 1h 48mn
Overall bit rate : 5 799 Kbps
Movie name : Из машины / Ex Machina (2015)
Encoded date : UTC 2015-05-17 19:51:19
Writing application : mkvmerge v5.8.0 ('No Sleep / Pillow') built on Sep 2 2012 15:37:04
Writing library : libebml v1.2.3 + libmatroska v1.3.0
Attachements : cover.png / logfile.log
Video
ID : 1
Format : AVC
Format/Info : Advanced Video Codec
Format profile : [email protected]
Format settings, CABAC : Yes
Format settings, ReFrames : 8 frames
Codec ID : V_MPEG4/ISO/AVC
Duration : 1h 48mn
Bit rate : 4 900 Kbps
Width : 1 280 pixels
Height : 536 pixels
Display aspect ratio : 2.40:1
Frame rate mode : Constant
Frame rate : 23.976 fps
Color space : YUV
Chroma subsampling : 4:2:0
Bit depth : 8 bits
Scan type : Progressive
Bits/(Pixel*Frame) : 0.298
Stream size : 3.61 GiB (83%)
Title : Из машины / Ex Machina (2015)
Writing library : x264 core 146 r0+2586 e393126 t_mod_Custom [[email protected] X86_64]
Encoding settings : cabac=1 / ref=8 / deblock=1:-3:-3 / analyse=0x3:0x133 / me=umh / subme=10 / psy=1 / fade_compensate=0.00 / psy_rd=1.05:0.00 / mixed_ref=1 / me_range=32 / chroma_me=1 / trellis=2 / 8x8dct=1 / cqm=0 / deadzone=21,11 / fast_pskip=0 / chroma_qp_offset=-2 / threads=12 / lookahead_threads=2 / sliced_threads=0 / nr=0 / decimate=1 / interlaced=0 / bluray_compat=0 / constrained_intra=0 / fgo=0 / bframes=8 / b_pyramid=2 / b_adapt=2 / b_bias=0 / direct=3 / weightb=1 / open_gop=0 / weightp=2 / keyint=240 / keyint_min=23 / scenecut=40 / intra_refresh=0 / rc=2pass / mbtree=0 / bitrate=4900 / ratetol=1.0 / qcomp=0.70 / qpmin=0:0:0 / qpmax=69:69:69 / qpstep=4 / cplxblur=20.0 / qblur=0.5 / ip_ratio=1.40 / pb_ratio=1.30 / aq=1:0.70 / aq-sensitivity=10.00 / aq-factor=1.00:1.00:1.00 / aq2=0 / aq3=0
Language : English
Default : Yes
Forced : No
Audio #1
ID : 2
Format : AC-3
Format/Info : Audio Coding 3
Mode extension : CM (complete main)
Format settings, Endianness : Big
Codec ID : A_AC3
Duration : 1h 48mn
Bit rate mode : Constant
Bit rate : 448 Kbps
Channel(s) : 6 channels
Channel positions : Front: L C R, Side: L R, LFE
Sampling rate : 48.0 KHz
Bit depth : 16 bits
Compression mode : Lossy
Stream size : 346 MiB (8%)
Title : Дубляж, Blu-ray CEE
Language : Russian
Default : Yes
Forced : No
Audio #2
ID : 3
Format : AC-3
Format/Info : Audio Coding 3
Mode extension : CM (complete main)
Format settings, Endianness : Big
Codec ID : A_AC3
Duration : 1h 48mn
Bit rate mode : Constant
Bit rate : 448 Kbps
Channel(s) : 6 channels
Channel positions : Front: L C R, Side: L R, LFE
Sampling rate : 48.0 KHz
Bit depth : 16 bits
Compression mode : Lossy
Stream size : 346 MiB (8%)
Title : English
Language : English
Default : No
Forced : No
Text #1
ID : 4
Format : UTF-8
Codec ID : S_TEXT/UTF8
Codec ID/Info : UTF-8 Plain Text
Title : Russian
Language : Russian
Default : No
Forced : No
Text #2
ID : 5
Format : UTF-8
Codec ID : S_TEXT/UTF8
Codec ID/Info : UTF-8 Plain Text
Title : English
Language : English
Default : No
Forced : No
Menu
00:00:00.000 : en:00:00:00.000
00:04:34.940 : en:00:04:34.940
00:11:16.634 : en:00:11:16.634
00:15:08.157 : en:00:15:08.157
00:23:38.750 : en:00:23:38.750
00:31:57.999 : en:00:31:57.999
00:36:05.163 : en:00:36:05.163
00:40:26.757 : en:00:40:26.757
00:45:56.378 : en:00:45:56.378
00:53:28.954 : en:00:53:28.954
01:00:26.079 : en:01:00:26.079
01:04:01.253 : en:01:04:01.253
01:07:19.076 : en:01:07:19.076
01:13:22.021 : en:01:13:22.021
01:16:56.110 : en:01:16:56.110
01:21:36.515 : en:01:21:36.515
01:27:36.833 : en:01:27:36.833
01:32:54.150 : en:01:32:54.150
01:38:51.007 : en:01:38:51.007
01:42:26.931 : en:01:42:26.931

Скриншоты






Последний раз редактировалось: ScorpiuS (2015-05-29 10:20), всего редактировалось 1 раз

Создавать темы 28-Май-2015 11:53

[Профиль]  [ЛС] 

Mixer City

Стаж: 6 лет 11 месяцев

Сообщений: 754

Симпатии: 63

ScorpiuS, нужно постер значительно меньше поставить!

Создавать темы 28-Май-2015 23:00

[Профиль]  [ЛС] 

ScorpiuS ®

Стаж: 7 лет 3 месяца

Сообщений: 206

Симпатии: 122

Mixer City, немогу редактировать пишет "это опция доступно только модераторам" сделай это сам если не трудно вот постер

Создавать темы 29-Май-2015 09:13

[Профиль]  [ЛС] 
Показать сообщения:    
Ответить на тему

Текущее время: 13-Дек 23:37

Часовой пояс: UTC + 5



Вы не можете начинать темы
Вы не можете отвечать на сообщения
Вы не можете редактировать свои сообщения
Вы не можете удалять свои сообщения
Вы не можете голосовать в опросах
Вы не можете прикреплять файлы к сообщениям
Вы не можете скачивать файлы