Всё ещё Элис / Still Alice (Ричард Глацер, Уош Уэстмоленд) [2014, США, Франция, драма, HDRip] (MVO : [лицензия]) (Original Eng)

Ответить на тему
 

akmal-19-66 ®

Стаж: 2 года 5 месяцев

Сообщений: 23

Симпатии: 120

Всё ещё Элис / Still Alice
Страна: США, Франция
Жанр: драма
Год выпуска: 2014
Продолжительность: 01:35:02-Перевод: Профессиональный (многоголосый закадровый) [лицензия]
Cубтитры: нет
Оригинальная аудиодорожка: английский-Режиссер: Ричард Глацер, Уош Уэстмоленд-В ролях: Джулианна Мур, Алек Болдуин, Кристен Стюарт, Кейт Босворт, Хантер Пэрриш, Виктория Картагена, Эрин Майя Дарк, Шэйн МакРей, Стефан Канкен, Эха Урбсалу-Описание: Элис Хаулэнд — известный профессор лингвистики. Она счастлива в браке, у нее трое взрослых детей. Но все меняется, когда однажды она начинает забывать слова…-Рейтинги
IMDB рейтинг: 7.5/10 (13,187 голосов)
КиноПоиск рейтинг: 7.621 (8.349 голосов)-Качество видео: HDRip
Формат видео: AVI
Видео кодек: XviD
Аудио кодек: AC3
Видео: 2029 kb/s, 720x384
Аудио: 384 kb/s (6 ch) English
Аудио 2: 384 kb/s (6 ch) Russian

MediaInfo

General
Complete name : E:\download\strannaya\Still.Alice.2014.P.HDRip.2100Mb.MT.avi
Format : AVI
Format/Info : Audio Video Interleave
Format profile : OpenDML
File size : 2.04 GiB
Duration : 1h 41mn
Overall bit rate : 2 880 Kbps
Writing application : VirtualDubMod 1.5.10.2 (build 2540/release)
Writing library : VirtualDubMod build 2540/release
Video
ID : 0
Format : MPEG-4 Visual
Format profile : Advanced [email protected]
Format settings, BVOP : Yes
Format settings, QPel : No
Format settings, GMC : No warppoints
Format settings, Matrix : Default (MPEG)
Codec ID : XVID
Codec ID/Hint : XviD
Duration : 1h 41mn
Bit rate : 2 030 Kbps
Width : 720 pixels
Height : 384 pixels
Display aspect ratio : 1.875
Frame rate : 23.976 fps
Color space : YUV
Chroma subsampling : 4:2:0
Bit depth : 8 bits
Scan type : Progressive
Bits/(Pixel*Frame) : 0.306
Stream size : 1.44 GiB (70%)
Writing library : XviD 1.2.1 (UTC 2008-12-04)
Audio #1
ID : 1
Format : AC-3
Format/Info : Audio Coding 3
Mode extension : CM (complete main)
Codec ID : 2000
Duration : 1h 41mn
Bit rate mode : Constant
Bit rate : 384 Kbps
Channel(s) : 6 channels
Channel positions : Front: L C R, Side: L R, LFE
Sampling rate : 48.0 KHz
Stream size : 278 MiB (13%)
Alignment : Split accross interleaves
Interleave, duration : 42 ms (1.00 video frame)
Interleave, preload duration : 500 ms
Audio #2
ID : 2
Format : AC-3
Format/Info : Audio Coding 3
Mode extension : CM (complete main)
Codec ID : 2000

Скриншоты







Последний раз редактировалось: akmal-19-66 (2015-05-30 13:22), всего редактировалось 1 раз

Создавать темы 30-Май-2015 08:25

[Профиль]  [ЛС] 

Каротажник

Стаж: 4 года

Сообщений: 195

Симпатии: 211

akmal-19-66, нужно постер значительно меньше поставить!

Создавать темы 30-Май-2015 09:47

[Профиль]  [ЛС] 
Показать сообщения:    
Ответить на тему

Текущее время: 19-Окт 21:26

Часовой пояс: UTC + 5



Вы не можете начинать темы
Вы не можете отвечать на сообщения
Вы не можете редактировать свои сообщения
Вы не можете удалять свои сообщения
Вы не можете голосовать в опросах
Вы не можете прикреплять файлы к сообщениям
Вы не можете скачивать файлы