Водолей / Aquarius / Сезон: 1 / Серии: 1-13 из 13 (Джонас Пейт, Майкл Цинберг, Джон Эмиел) [2015, драма, криминал, WEB-DLRip] MVO (NewStudio) + Original

Ответить на тему
 

lector_87 ®

Стаж: 3 года 9 месяцев

Сообщений: 391

Симпатии: 348

Водолей
Aquarius
«His case of the week became the case of a generation»
- Год выпуска: 2015
Страна: США
Жанр: драма, криминал
Продолжительность: 00:42:00--Перевод: Профессиональный (многоголосый, закадровый) (NewStudio)
субтитры: нет
Режиссёр: Джонас Пейт, Майкл Цинберг, Джон Эмиел--В ролях: Дэвид Духовны, Клер Холт, Эмма Дюмон, Грэй Дэймон, Чэнс Келли, Карл Конти, Михаэлла МакМанус, Тара Барр, Дэвид Мюнье, Уитни Роуз Пинн--Описание: Сюжет сериала основан на реальной истории организации «Семья» руководимой Чарльзом Мэнсоном. События фильма начинают развиваться в 1967-м году. Полицейскому Сэму поручают расследовать похищение дочери известного адвоката. Он обращается за помощью к своему коллеге, работающему под прикрытием в среде подростков-хиппи. Вместе они выходят на Чарльза Мэнсона, собравшего на своем ранчо группу «детей», среди которых он пропагандирует культуру хиппи, наркотики и групповой секс. Через два года череда зверских убийств, совершенных приспешниками Мэнсона, заставит содрогнуться от ужаса всю Америку.--Качество: WEB-DLRip
Формат: AVI
Видео кодек: XviD
Аудио кодек: MP3
Видео: XviD. 1500 kb/s, 720x400
Аудио: Русский, английский (MP3, 2 ch, 128 kbps )--

MediaInfo

General
Complete name : F:\Aquarius.s01.WEBDLRip.NewStudio\Aquarius.s01e01.WEBDLRip.NewStudio.TV.avi
Format : AVI
Format/Info : Audio Video Interleave
File size : 550 MiB
Duration : 43mn 8s
Overall bit rate : 1 783 Kbps
Writing application : VirtualDubMod 1.5.10.2 (build 2540/release)
Writing library : VirtualDubMod build 2540/release
Video
ID : 0
Format : MPEG-4 Visual
Format profile : Advanced [email protected]
Format settings, BVOP : 2
Format settings, QPel : No
Format settings, GMC : No warppoints
Format settings, Matrix : Default (MPEG)
Codec ID : XVID
Codec ID/Hint : XviD
Duration : 43mn 8s
Bit rate : 1 513 Kbps
Width : 720 pixels
Height : 400 pixels
Display aspect ratio : 16:9
Frame rate : 23.976 fps
Color space : YUV
Chroma subsampling : 4:2:0
Bit depth : 8 bits
Scan type : Progressive
Compression mode : Lossy
Bits/(Pixel*Frame) : 0.219
Stream size : 467 MiB (85%)
Writing library : XviD 64
Audio #1
ID : 1
Format : MPEG Audio
Format version : Version 1
Format profile : Layer 3
Mode : Joint stereo
Mode extension : MS Stereo
Codec ID : 55
Codec ID/Hint : MP3
Duration : 43mn 8s
Bit rate mode : Constant
Bit rate : 128 Kbps
Channel(s) : 2 channels
Sampling rate : 48.0 KHz
Compression mode : Lossy
Stream size : 39.5 MiB (7%)
Alignment : Aligned on interleaves
Interleave, duration : 42 ms (1.00 video frame)
Interleave, preload duratio : 504 ms
Audio #2
ID : 2
Format : MPEG Audio
Format version : Version 1
Format profile : Layer 3
Mode : Joint stereo
Mode extension : MS Stereo
Codec ID : 55
Codec ID/Hint : MP3
Duration : 43mn 8s
Bit rate mode : Constant
Bit rate : 128 Kbps
Channel(s) : 2 channels
Sampling rate : 48.0 KHz
Compression mode : Lossy
Stream size : 39.5 MiB (7%)
Alignment : Aligned on interleaves
Interleave, duration : 42 ms (1.00 video frame)
Interleave, preload duratio : 504 ms
Writing library : LAME3.99r
Encoding settings : -m j -V 4 -q 2 -lowpass 17 -b 128

Скриншоты

Трейлер к сериалу


Последний раз редактировалось: lector_87 (2015-06-07 19:00), всего редактировалось 4 раз(а)

Создавать темы 30-Май-2015 10:28

[Профиль]  [ЛС] 

lector_87 ®

Стаж: 3 года 9 месяцев

Сообщений: 391

Симпатии: 348

ФИНАЛ СЕЗОНА

Создавать темы 04-Июн-2015 06:49

[Профиль]  [ЛС] 

xBETEPx

Стаж: 6 лет 9 месяцев

Сообщений: 24

Симпатии: 3

Люди залейте плз 2 сезон

Комментарий от Zab


2- сезон еще не вышел)

Создавать темы 31-Авг-2015 12:45

[Профиль]  [ЛС] 
Показать сообщения:    
Ответить на тему

Текущее время: 22-Ноя 00:26

Часовой пояс: UTC + 5



Вы не можете начинать темы
Вы не можете отвечать на сообщения
Вы не можете редактировать свои сообщения
Вы не можете удалять свои сообщения
Вы не можете голосовать в опросах
Вы не можете прикреплять файлы к сообщениям
Вы не можете скачивать файлы