Оборотень / Ginger Snaps (Джон Фоусет) [2000, Канада, ужасы, драма, BDRip] DVO

Ответить на тему
 

lotto ®

Стаж: 7 лет 9 месяцев

Сообщений: 221

Симпатии: 409

Оборотень / Ginger Snaps
«Ginger Snaps....AND Bites»
-- Страна: Канада
Жанр: ужасы, драма
Год выпуска: 2000
Продолжительность: 01:48:09
Перевод: Профессиональный (двухголосый закадровый)
Cубтитры: нет--Режиссер: Джон Фоусет
В ролях: Эмили Перкинс, Кэтрин Изабель, Крис Лемке, Мими Роджерс, Джесси Мосс, Даниэль Хэмптон, Джон Буржуа, Питер Келеган, Кристофер Редман, Джимми МакИннис--Описание: 16-летняя Джинджер и ее младшая сестра Бриджитт очень любят снимать на видеокамеру «фильмы ужасов», безжалостно расходуя огромное количество красной краски. И вообще развлекаются как только могут.
Однажды во время одной из ночных вылазок на Джинджер нападает какое-то огромное чудовище. Бриджитт помогает скрыть следы укусов от родителей. К удивлению сестер, раны быстро затягиваются. Но когда с Джинджер начинают происходить какие-то странные изменения, девочки понимают, что их проблемы только начинаются…-- --Качество видео: BDRip
Формат видео: AVI
Видео: Xvid, 704x400, 23.976fps 1535 kbps
Аудио: AC3, 48000Hz, 6ch, 384kbps (русский, двухголосый)

MediaInfo

General
Complete name : \Ginger.Snaps.2000.BDRip.DVO.All.Films.avi
Format : AVI
Format/Info : Audio Video Interleave
File size : 1.46 GiB
Duration : 1h 48mn
Overall bit rate : 1 928 Kbps
Movie name : Ginger.Snaps.2000.BDRip.DVO.All.Films
Director : DIABLO93
Genre : Horror
Writing application : VirtualDubMod 1.5.10.3 | www.virtualdub-fr.org || (build 2550/release)
Original source form/Name : Movie
Copyright : Rutracker.org (R.G. All Films)
Video
ID : 0
Format : MPEG-4 Visual
Format profile : Advanced [email protected]
Format settings, BVOP : 2
Format settings, QPel : No
Format settings, GMC : No warppoints
Format settings, Matrix : Custom
Codec ID : XVID
Codec ID/Hint : XviD
Duration : 1h 48mn
Bit rate : 1 535 Kbps
Width : 704 pixels
Height : 400 pixels
Display aspect ratio : 16:9
Frame rate : 23.976 fps
Color space : YUV
Chroma subsampling : 4:2:0
Bit depth : 8 bits
Scan type : Progressive
Compression mode : Lossy
Bits/(Pixel*Frame) : 0.227
Stream size : 1.16 GiB (80%)
Writing library : XviD 65
Audio
ID : 1
Format : AC-3
Format/Info : Audio Coding 3
Mode extension : CM (complete main)
Format settings, Endianness : Big
Codec ID : 2000
Duration : 1h 48mn
Bit rate mode : Constant
Bit rate : 384 Kbps
Channel(s) : 6 channels
Channel positions : Front: L C R, Side: L R, LFE
Sampling rate : 48.0 KHz
Compression mode : Lossy
Stream size : 297 MiB (20%)
Alignment : Split accross interleaves
Interleave, duration : 42 ms (1.00 video frame)
Interleave, preload duratio : 500 ms

Скриншот c названием фильма

Скриншоты




Создавать темы 30-Май-2015 14:41

[Профиль]  [ЛС] 
Показать сообщения:    
Ответить на тему

Текущее время: 22-Окт 09:52

Часовой пояс: UTC + 5



Вы не можете начинать темы
Вы не можете отвечать на сообщения
Вы не можете редактировать свои сообщения
Вы не можете удалять свои сообщения
Вы не можете голосовать в опросах
Вы не можете прикреплять файлы к сообщениям
Вы не можете скачивать файлы