Shakira (Live At Glastonbury Festival) США 2010 / MKV

Ответить на тему
 

Zaddera ®

Стаж: 2 года 7 месяцев

Сообщений: 11

Симпатии: 4

Shakira
Live At Glastonbury Festival

Год выпуска: 2010
Страна: США
Жанр: Pop
Продолжительность: 0:44:38
Качество: HDTVRip
Формат: MKV
Видео: MPEG4 Video (H264) 1365x768
Аудио: DTS 48000Hz 6ch
Описание: Shakira (Live At Glastonbury Festival) 26 июня 2010

MI

Unique ID : 230905757203911692877228790779012077306 (0xADB6D4CA60C05B5FB3A8AAA7B7FA56FA)
Format : Matroska
Format version : Version 1
File size : 1.09 GiB
Duration : 44mn 38s
Overall bit rate : 3 502 Kbps
Encoded date : UTC 2010-06-27 16:23:47
Writing application : mkvmerge v2.4.0 ('Fumbling Towards Ecstasy') built on Oct 11 2008 20:13:15
Writing library : libebml v0.7.7 + libmatroska v0.8.1
Video
ID : 1
Format : AVC
Format/Info : Advanced Video Codec
Format profile : [email protected]
Format settings, CABAC : Yes
Format settings, ReFrames : 5 frames
Codec ID : V_MPEG4/ISO/AVC
Duration : 44mn 38s
Bit rate : 3 242 Kbps
Width : 720 pixels
Height : 576 pixels
Display aspect ratio : 16:9
Original display aspect ratio : 5:4
Frame rate mode : Constant
Frame rate : 25.000 fps
Standard : PAL
Color space : YUV
Chroma subsampling : 4:2:0
Bit depth : 8 bits
Scan type : Progressive
Bits/(Pixel*Frame) : 0.313
Stream size : 1 014 MiB (91%)
Writing library : x264 core 88 r1471 1144615
Encoding settings : cabac=1 / ref=5 / deblock=1:0:0 / analyse=0x1:0x111 / me=umh / subme=8 / psy=1 / psy_rd=1.00:0.00 / mixed_ref=1 / me_range=16 / chroma_me=1 / trellis=1 / 8x8dct=0 / cqm=0 / deadzone=21,11 / fast_pskip=0 / chroma_qp_offset=-2 / threads=12 / sliced_threads=0 / nr=0 / decimate=1 / mbaff=0 / constrained_intra=0 / bframes=3 / b_pyramid=2 / b_adapt=1 / b_bias=0 / direct=1 / wpredb=1 / wpredp=2 / keyint=250 / keyint_min=25 / scenecut=40 / intra_refresh=0 / rc_lookahead=40 / rc=2pass / mbtree=1 / bitrate=3242 / ratetol=1.0 / qcomp=0.60 / qpmin=10 / qpmax=51 / qpstep=4 / cplxblur=20.0 / qblur=0.5 / ip_ratio=1.40 / aq=1:1.00
Default : Yes
Forced : No
Audio
ID : 2
Format : MPEG Audio
Format version : Version 1
Format profile : Layer 2
Codec ID : A_MPEG/L2
Codec ID/Hint : MP2
Duration : 44mn 38s
Bit rate mode : Constant
Bit rate : 256 Kbps
Channel(s) : 2 channels
Sampling rate : 48.0 KHz
Compression mode : Lossy
Stream size : 81.7 MiB (7%)
Default : Yes
Forced : No

Tracklist

1. Ojos Asi
2. Whenever, Wherever
3. Si Te Vas
4. Underneath Your Clothes
5. Gordita
6. Islands
7. She Wolf
8. Waka Waka
9. Hips Don’t Lie

Скриншоты







Последний раз редактировалось: Zaddera (2015-06-04 12:43), всего редактировалось 2 раз(а)

Создавать темы 30-Май-2015 15:26

[Профиль]  [ЛС] 

Admin

Стаж: 5 лет 10 месяцев

Сообщений: 580

Симпатии: 106

укажите битрейт аудио/видео

Создавать темы 03-Июн-2015 18:04

[Профиль]  [ЛС] 
Показать сообщения:    
Ответить на тему

Текущее время: 19-Ноя 11:51

Часовой пояс: UTC + 5



Вы не можете начинать темы
Вы не можете отвечать на сообщения
Вы не можете редактировать свои сообщения
Вы не можете удалять свои сообщения
Вы не можете голосовать в опросах
Вы не можете прикреплять файлы к сообщениям
Вы не можете скачивать файлы