24 часа / Trapped (Луис Мандоки) [2002, США, Германия, Триллер, драма, криминал, HDRip] (Dub)

Ответить на тему
 

Decadence ®

Стаж: 5 лет 2 месяца

Сообщений: 65

Симпатии: 32

24 часа / Trapped
Страна: США, Германия
Жанр: Триллер, драма, криминал
Год выпуска: 2002
Продолжительность: 01:45:46
Перевод: Профессиональный (дублированный)
Cубтитры: нет
Режиссер: Луис Мандоки
В ролях: Шарлиз Терон, Кортни Лав, Стюарт Таунсенд, Кевин Бейкон, Прюитт Тэйлор Винс, Дакота Фаннинг, Стив Рэнкин, Гари Чок, Джоди Маркелл, Мэтт Коби
Описание: Трое преступников — супруги Хики Джо и Черил и их кузен Джой Марвин — настолько хорошо знают среду, в которой живут, что сумели разработать безукоризненный план вымогательства денег у состоятельных семей. Они действуют уверенно, умело и успешно и настолько хорошо заметают свои следы, что после них остаются только перепуганные жертвы, которые предпочитают хранить молчание, ибо рады уже тому, что остались живы.
Но на этот раз они ошиблись в выборе семьи, которая предпочла дать отпор преступникам, вследствие чего события приняли неожиданный поворот…
 
Качество видео: HDRip
Формат видео: AVI
Видео: XviD, 576x320, 23.976 fps, 850 kbps
Аудио: MP3, 48.0 KHz, 2 channels, 128 kbps

MediaInfo

General
Complete name : Trapped.avi
Format : AVI
Format/Info : Audio Video Interleave
File size : 747 MiB
Duration : 1h 45mn
Overall bit rate : 987 Kbps
Writing application : VirtualDubMod 1.5.10.3 | www.virtualdub-fr.org || (build 2550/release)
Writing library : VirtualDubMod build 2550/release
Video #0
ID : 0
Format : MPEG-4 Visual
Format profile : Advanced [email protected]
Format settings, BVOP : 1
Format settings, QPel : No
Format settings, GMC : No warppoints
Format settings, Matrix : Custom
Codec ID : XVID
Codec ID/Hint : XviD
Duration : 1h 45mn
Bit rate : 850 Kbps
Width : 576 pixels
Height : 320 pixels
Display aspect ratio : 16:9
Frame rate : 23.976 fps
Color space : YUV
Chroma subsampling : 4:2:0
Bit depth : 8 bits
Scan type : Progressive
Compression mode : Lossy
Bits/(Pixel*Frame) : 0.192
Stream size : 643 MiB (86%)
Writing library : XviD 1.2.1 (UTC 2008-12-04)
Audio #1
ID : 1
Format : MPEG Audio
Format version : Version 1
Format profile : Layer 3
Codec ID : 55
Codec ID/Hint : MP3
Duration : 1h 45mn
Bit rate mode : Constant
Bit rate : 128 Kbps
Channel(s) : 2 channels
Sampling rate : 48.0 KHz
Compression mode : Lossy
Stream size : 96.8 MiB (13%)
Alignment : Aligned on interleaves
Interleave, duration : 42 ms (1.00 video frame)
Interleave, preload duration : 504 ms
Writing library : LAME3.98r
Encoding settings : -m s -V 4 -q 2 -lowpass 17 -b 128

Скриншот c названием фильма

Скриншоты



Создавать темы 30-Май-2015 23:00

[Профиль]  [ЛС] 
Показать сообщения:    
Ответить на тему

Текущее время: 11-Дек 18:21

Часовой пояс: UTC + 5



Вы не можете начинать темы
Вы не можете отвечать на сообщения
Вы не можете редактировать свои сообщения
Вы не можете удалять свои сообщения
Вы не можете голосовать в опросах
Вы не можете прикреплять файлы к сообщениям
Вы не можете скачивать файлы