Монстр / Monster (Пэтти Дженкинс) [2003, США, Германия, Драма, криминал, биография, HDRip] (Dub)

Ответить на тему
 

Decadence ®

Стаж: 5 лет

Сообщений: 65

Симпатии: 32

Монстр / Monster
Страна: США, Германия
Жанр: Драма, криминал, биография
Год выпуска: 2003
Продолжительность: 01:48:48
Перевод: Профессиональный (дублированный)
Cубтитры: нет
Режиссер: Пэтти Дженкинс
В ролях: Шарлиз Терон, Кристина Риччи, Брюс Дерн, Ли Тергесен, Энни Корли, Прюитт Тэйлор Винс, Марко Ст. Джон, Марк Маколей, Скотт Уилсон, Рас Блэквелл
Описание: Любовная история, разворачивающаяся на фоне ужасных преступлений двух отверженных — проститутки-бродяжки Уорнос, убивающей многих из своих клиентов — «джонни», и Селби Уолл, отосланной родителями к тетке во Флориду, чтобы «излечить от лесбийских наклонностей».
Отчаявшаяся, близкая к самоубийству Эйлин забредает в бар, где встречается с Селби и влюбляется в нее. Чтобы жить с Селби, она продолжает продавать свое тело. В ней нарастает смертельная ярость, приводящая к череде убийств, в результате которых средства массовой информации назовут ее Монстром — первым серийным убийцей среди женщин.
 
Качество видео: HDRip
Формат видео: AVI
Видео: XviD, 656x352, 23.976 fps, 819 kbps
Аудио: MP3, 48.0 KHz, 2 channels, 128 kbps

MediaInfo

General
Complete name : Monster.avi
Format : AVI
Format/Info : Audio Video Interleave
File size : 744 MiB
Duration : 1h 48mn
Overall bit rate : 956 Kbps
Writing application : VirtualDubMod 1.5.10.2 (build 2540/release)
Writing library : VirtualDubMod build 2540/release
Video #0
ID : 0
Format : MPEG-4 Visual
Format profile : Advanced [email protected]
Format settings, BVOP : 1
Format settings, QPel : No
Format settings, GMC : No warppoints
Format settings, Matrix : Custom
Codec ID : XVID
Codec ID/Hint : XviD
Duration : 1h 48mn
Bit rate : 819 Kbps
Width : 656 pixels
Height : 352 pixels
Display aspect ratio : 1.85:1
Frame rate : 23.976 fps
Color space : YUV
Chroma subsampling : 4:2:0
Bit depth : 8 bits
Scan type : Progressive
Compression mode : Lossy
Bits/(Pixel*Frame) : 0.148
Stream size : 637 MiB (86%)
Writing library : XviD 1.2.1 (UTC 2008-12-04)
Audio #1
ID : 1
Format : MPEG Audio
Format version : Version 1
Format profile : Layer 3
Codec ID : 55
Codec ID/Hint : MP3
Duration : 1h 48mn
Bit rate mode : Constant
Bit rate : 128 Kbps
Channel(s) : 2 channels
Sampling rate : 48.0 KHz
Compression mode : Lossy
Stream size : 99.6 MiB (13%)
Alignment : Aligned on interleaves
Interleave, duration : 42 ms (1.00 video frame)
Interleave, preload duration : 504 ms
Writing library : LAME3.98r
Encoding settings : -m s -V 4 -q 2 -lowpass 17 -b 128

Скриншот c названием фильма

Скриншоты



Создавать темы 30-Май-2015 23:20

[Профиль]  [ЛС] 
Показать сообщения:    
Ответить на тему

Текущее время: 18-Окт 18:00

Часовой пояс: UTC + 5



Вы не можете начинать темы
Вы не можете отвечать на сообщения
Вы не можете редактировать свои сообщения
Вы не можете удалять свои сообщения
Вы не можете голосовать в опросах
Вы не можете прикреплять файлы к сообщениям
Вы не можете скачивать файлы