Пьяный рассвет / Tequila Sunrise (Роберт Таун) [1988, США, Боевик, триллер, мелодрама, криминал, DVDRip] (Dub : Варус Видео)

Ответить на тему
 

Decadence ®

Стаж: 5 лет

Сообщений: 65

Симпатии: 32

Пьяный рассвет / Tequila Sunrise
Страна: США
Жанр: Боевик, триллер, мелодрама, криминал
Год выпуска: 1988
Продолжительность: 01:53:44
Перевод: Профессиональный (дублированный) (Варус Видео)
Cубтитры: нет
Режиссер: Роберт Таун
В ролях: Мэл Гибсон, Мишель Пфайффер, Курт Рассел, Рауль Хулиа, Дж.Т. Уолш, Арлисс Ховард, Ари Гросс, Гэбриел Дэймон, Даниэль Сакапа, Эрик Тиле
Описание: Мак МакКьюссик, возможно, оставил наркобизнес. Однако сам наркобизнес никак не хочет оставить его в покое: им интересуются и полицейские, и наркодельцы.
 
Качество видео: DVDRip
Формат видео: AVI
Видео: XviD, 640x368, 25.000 fps, 901 kbps
Аудио: MP3, 48.0 KHz, 2 channels, 128 kbps

MediaInfo

General
Complete name : Tequila Sunrise.avi
Format : AVI
Format/Info : Audio Video Interleave
File size : 824 MiB
Duration : 1h 53mn
Overall bit rate mode : Variable
Overall bit rate : 1 013 Kbps
Writing application : VirtualDubMod 1.5.4.1 (build 2178/release)
Writing library : VirtualDubMod build 2178/release
Video #0
ID : 0
Format : MPEG-4 Visual
Format profile : Advanced [email protected]
Format settings, BVOP : 1
Format settings, QPel : No
Format settings, GMC : No warppoints
Format settings, Matrix : Custom
Codec ID : XVID
Codec ID/Hint : XviD
Duration : 1h 53mn
Bit rate : 901 Kbps
Width : 640 pixels
Height : 368 pixels
Display aspect ratio : 1.739
Frame rate : 25.000 fps
Color space : YUV
Chroma subsampling : 4:2:0
Bit depth : 8 bits
Scan type : Progressive
Compression mode : Lossy
Bits/(Pixel*Frame) : 0.153
Stream size : 733 MiB (89%)
Writing library : XviD 1.2.1 (UTC 2008-12-04)
Audio #1
ID : 1
Format : MPEG Audio
Format version : Version 1
Format profile : Layer 3
Mode : Joint stereo
Mode extension : MS Stereo
Codec ID : 55
Codec ID/Hint : MP3
Duration : 1h 50mn
Bit rate mode : Variable
Bit rate : 102 Kbps
Nominal bit rate : 128 Kbps
Channel(s) : 2 channels
Sampling rate : 48.0 KHz
Compression mode : Lossy
Stream size : 81.1 MiB (10%)
Alignment : Aligned on interleaves
Interleave, duration : 25 ms (0.62 video frame)
Interleave, preload duration : 180 ms
Writing library : LAME3.98r
Encoding settings : -m j -V 4 -q 2 -lowpass 17 --abr 128
Language : Russian

Скриншот c названием фильма

Скриншоты



Создавать темы 31-Май-2015 10:22

[Профиль]  [ЛС] 
Показать сообщения:    
Ответить на тему

Текущее время: 22-Сен 04:11

Часовой пояс: UTC + 5



Вы не можете начинать темы
Вы не можете отвечать на сообщения
Вы не можете редактировать свои сообщения
Вы не можете удалять свои сообщения
Вы не можете голосовать в опросах
Вы не можете прикреплять файлы к сообщениям
Вы не можете скачивать файлы