Французский транзит / La French (Седрик Хименес) [2014, Франция, Бельгия, боевик, триллер, криминал, ..., HDRip][Звук с TS]

Ответить на тему
 

Каротажник ®

Стаж: 4 года

Сообщений: 195

Симпатии: 211

Французский транзит / La French Страна: Франция, Бельгия
Жанр: боевик, триллер, криминал, ...
Год выпуска: 2014--Продолжительность: 02:15:36
Перевод: Дублированный [Звук с TS]
Режиссер: Седрик Хименес
В ролях: Жан Дюжарден, Жиль Леллуш, Селин Саллетт, Мелани Дотей, Бенуа Мажимель, Гийом Гуи, Бруно Тодескини, Федор Аткин, Мусса Мааскри, Пьер Лопез--Описание: Французский полицейский судья на протяжении многих лет пытается разобраться с одним из самых крупных наркосиндикатов.-- 
--Качество видео: HDRip
Формат видео: AVI--Видео: Xvid 720x304 24fps 1401kbps
Аудио: AC3 48000Hz stereo 128kbps

MediaInfo

Format : AVI
Format/Info : Audio Video Interleave
File size : 1.46 GiB
Duration : 2h 15mn
Overall bit rate : 1 539 Kbps
Movie name : 5rancuzskij.3ranzit.2014.D.HDRip.ELEKTRI4KA.uniongang.tv
Writing application : VirtualDubMod 1.5.10.3 | www.virtualdub-fr.org || (build 2550/release)
Copyright : UNIONGANG&RUSTORRENTS
Video
ID : 0
Format : MPEG-4 Visual
Format profile : Advanced [email protected]
Format settings, BVOP : Yes
Format settings, QPel : No
Format settings, GMC : No warppoints
Format settings, Matrix : Default (MPEG)
Codec ID : XVID
Codec ID/Hint : XviD
Duration : 2h 15mn
Bit rate : 1 402 Kbps
Width : 720 pixels
Height : 304 pixels
Display aspect ratio : 2.35:1
Frame rate : 24.000 fps
Color space : YUV
Chroma subsampling : 4:2:0
Bit depth : 8 bits
Scan type : Progressive
Compression mode : Lossy
Bits/(Pixel*Frame) : 0.267
Stream size : 1.33 GiB (91%)
Writing library : XviD 73
Audio
ID : 1
Format : AC-3
Format/Info : Audio Coding 3
Mode extension : CM (complete main)
Format settings, Endianness : Big
Codec ID : 2000
Duration : 2h 15mn
Bit rate mode : Constant
Bit rate : 128 Kbps
Channel(s) : 2 channels
Channel positions : Front: L R
Sampling rate : 48.0 KHz
Bit depth : 16 bits
Compression mode : Lossy
Stream size : 124 MiB (8%)
Alignment : Split accross interleaves
Interleave, duration : 42 ms (1.00 video frame)
Interleave, preload duration : 500 ms

Скриншоты



Создавать темы 31-Май-2015 10:53

[Профиль]  [ЛС] 
Показать сообщения:    
Ответить на тему

Текущее время: 20-Окт 10:17

Часовой пояс: UTC + 5



Вы не можете начинать темы
Вы не можете отвечать на сообщения
Вы не можете редактировать свои сообщения
Вы не можете удалять свои сообщения
Вы не можете голосовать в опросах
Вы не можете прикреплять файлы к сообщениям
Вы не можете скачивать файлы