Драгонболл: Сон Гоку и друзья возвращаются!! / Dragon Ball: Ossu! Kaette Kita Son Gokuu to Nakama-tachi!! (Уэда Ёсихиро) [Movie] [Без хардсаба] [RUS(int),JAP] [2008г., приключения, фэнтези HDTVRip] [720p]

Ответить на тему
 

SoluSoull ®

Стаж: 2 года 7 месяцев

Сообщений: 379

Симпатии: 452

Dragon Ball: Ossu! Kaette Kita Son Gokuu to Nakama-tachi!!
Драгонболл: Сон Гоку и друзья возвращаются!!-Производство: Япония
Год выпуска: 2008
Жанр: приключения, фэнтези
Тип: короткометражный фильм, 34 мин.-Перевод:
Озвучка от MCShamaN-Режиссёр: Уэда Ёсихиро
Автор оригинала: Торияма Акира
Студия: TOEI ANIMATION-Описание: В рамках рекламного мероприятия Jump Super Anime Tour , состоявшегося осенью 2008 года, в десяти городах Японии были показаны несколько специально созданных короткометражных фильмов, основанных на популярных мангах. Самые значительные из них адаптации Dragon Ball, One Piece и Tegami Bachi (Letter Bee).
Два года прошло после битвы с Мейджин Бу. Отель мистера Сатана, построенный в память о победе над Boo наконец завершен. Гоку и друзей приглашают в качестве гостей на открытие. Но история на это не заканчивается. Как на зло, когда все "набили пузо", объявился брат Вегеты, и просит защитить себе и свою планету перед злыми братьями Або и Кадо. тут и начинается экшин.-Качество: HDRip \ Формат: AVI
Тип видео: без хардсаба
Видео: MPEG4 Video (H264) 1280x720 25.00fps 3177kbps
Аудио RUS: Dolby AC3 48000Hz stereo 192kbps
Аудио JAP: Dolby AC3 44100Hz stereo 255kbps-

Скриншоты

MI

General
Complete name : F:\[RAZNEW]\Dragon Ball\Movie\Dragon Ball - Ossu! Kaette Kita Son Gokuu to Nakama-tachi!!.avi
Format : AVI
Format/Info : Audio Video Interleave
File size : 867 MiB
Duration : 33mn 19s
Overall bit rate : 3 640 Kbps
Writing application : VirtualDubMod 1.5.10.2 (build 2540/release)
Writing library : VirtualDubMod build 2540/release
Video
ID : 0
Format : AVC
Format/Info : Advanced Video Codec
Format profile : [email protected]
Format settings, CABAC : Yes
Format settings, ReFrames : 1 frame
Codec ID : H264
Duration : 33mn 19s
Bit rate : 3 182 Kbps
Width : 1 280 pixels
Height : 720 pixels
Display aspect ratio : 16:9
Frame rate : 25.000 fps
Color space : YUV
Chroma subsampling : 4:2:0
Bit depth : 8 bits
Scan type : Progressive
Bits/(Pixel*Frame) : 0.138
Stream size : 757 MiB (87%)
Writing library : x264 core 60 r913bm 64848ff
Encoding settings : cabac=1 / ref=1 / deblock=1:0:0 / analyse=0x3:0x13 / me=umh / subme=6 / brdo=0 / mixed_ref=0 / me_range=16 / chroma_me=1 / trellis=0 / 8x8dct=1 / cqm=0 / deadzone=21,11 / chroma_qp_offset=0 / threads=1 / nr=0 / decimate=1 / mbaff=0 / bframes=0 / keyint=250 / keyint_min=25 / scenecut=40 / rc=abr / bitrate=3182 / ratetol=1.0 / rceq='blurCplx^(1-qComp)' / qcomp=1.00 / qpmin=10 / qpmax=51 / qpstep=4 / ip_ratio=1.40 / aq=2:1.00
Audio #1
ID : 1
Format : AC-3
Format/Info : Audio Coding 3
Mode extension : CM (complete main)
Format settings, Endianness : Big
Codec ID : 2000
Duration : 33mn 19s
Bit rate mode : Constant
Bit rate : 192 Kbps
Channel(s) : 2 channels
Channel positions : Front: L R
Sampling rate : 48.0 KHz
Bit depth : 16 bits
Compression mode : Lossy
Stream size : 45.8 MiB (5%)
Alignment : Split accross interleaves
Interleave, duration : 40 ms (1.00 video frame)
Interleave, preload duratio : 500 ms
Title : DB OVA Sound: RUS
Audio #2
ID : 2
Format : AC-3
Format/Info : Audio Coding 3
Mode extension : CM (complete main)
Format settings, Endianness : Big
Codec ID : 2000
Duration : 33mn 18s
Bit rate mode : Constant
Bit rate : 256 Kbps
Channel(s) : 2 channels
Channel positions : Front: L R
Sampling rate : 44.1 KHz
Bit depth : 16 bits
Compression mode : Lossy
Stream size : 61.0 MiB (7%)
Alignment : Split accross interleaves
Interleave, duration : 40 ms (1.00 video frame)
Interleave, preload duratio : 522 ms

Создавать темы 31-Май-2015 21:48

[Профиль]  [ЛС] 
Показать сообщения:    
Ответить на тему

Текущее время: 24-Окт 11:02

Часовой пояс: UTC + 5



Вы не можете начинать темы
Вы не можете отвечать на сообщения
Вы не можете редактировать свои сообщения
Вы не можете удалять свои сообщения
Вы не можете голосовать в опросах
Вы не можете прикреплять файлы к сообщениям
Вы не можете скачивать файлы