Драгонболл: эпизод про Бардока / Dragon Ball: Episode of Bardock (Уэда Ёсихиро) [Movie] [Без хардсаба] [RUS(int),JAP] [2011г., приключения, фэнтези HDTVRip] [720p]

Ответить на тему
 

SoluSoull ®

Стаж: 2 года 7 месяцев

Сообщений: 379

Симпатии: 452

Dragon Ball: Episode of Bardock
Драгонболл: эпизод про Бардока-Производство: Япония
Год выпуска: 2011
Жанр: приключения, фэнтези
Тип: короткометражный фильм, 20 мин.-Перевод:
Озвучка от MCShamaN-Режиссёр: Уэда Ёсихиро
Автор оригинала: Торияма Акира
Студия: TOEI ANIMATION-Описание: Это ответвление оригинально сюжета Dragon Ball. В этом спешале речь идёт о том, что случилось с Бардоком после уничтожения Планеты Веджита и поражения Фризе. Невидная история о происхождении супер саянов.-Качество: HDRip \ Формат: MP4
Тип видео: без хардсаба
Видео: MPEG4 Video (H264) 1280x720 2100 Kbps 30.004fps
Аудио RUS: AAC 48000Hz stereo 192kbps
Аудио JAP: AAC 48000Hz stereo 192kbps-

Скриншоты

MI

General
Complete name : F:\[RAZNEW]\Dragon Ball\Movie\Dragon Ball - Episode of Bardock.mp4
Format : MPEG-4
Format profile : Base Media
Codec ID : isom
File size : 347 MiB
Duration : 19mn 57s
Overall bit rate mode : Variable
Overall bit rate : 2 428 Kbps
Encoded date : UTC 2012-02-21 20:59:12
Tagged date : UTC 2012-02-21 20:59:12
Video
ID : 1
Format : AVC
Format/Info : Advanced Video Codec
Format profile : High@L3.2
Format settings, CABAC : Yes
Format settings, ReFrames : 4 frames
Codec ID : avc1
Codec ID/Info : Advanced Video Coding
Duration : 19mn 57s
Bit rate : 2 100 Kbps
Maximum bit rate : 6 405 Kbps
Width : 1 280 pixels
Height : 720 pixels
Display aspect ratio : 16:9
Frame rate mode : Constant
Frame rate : 30.000 fps
Color space : YUV
Chroma subsampling : 4:2:0
Bit depth : 8 bits
Scan type : Progressive
Bits/(Pixel*Frame) : 0.076
Stream size : 300 MiB (87%)
Writing library : x264 core 115 r1947 b5a8ad7
Encoding settings : cabac=1 / ref=3 / deblock=1:0:0 / analyse=0x3:0x113 / me=hex / subme=7 / psy=1 / psy_rd=1.00:0.00 / mixed_ref=1 / me_range=16 / chroma_me=1 / trellis=1 / 8x8dct=1 / cqm=0 / deadzone=21,11 / fast_pskip=1 / chroma_qp_offset=-2 / threads=6 / sliced_threads=0 / nr=0 / decimate=1 / interlaced=0 / bluray_compat=0 / constrained_intra=0 / bframes=3 / b_pyramid=2 / b_adapt=1 / b_bias=0 / direct=1 / weightb=1 / open_gop=0 / weightp=2 / keyint=250 / keyint_min=25 / scenecut=40 / intra_refresh=0 / rc_lookahead=40 / rc=2pass / mbtree=1 / bitrate=2100 / ratetol=1.0 / qcomp=0.60 / qpmin=0 / qpmax=51 / qpstep=4 / cplxblur=20.0 / qblur=0.5 / ip_ratio=1.40 / aq=1:1.00
Encoded date : UTC 1970-01-01 00:00:00
Tagged date : UTC 2012-02-21 20:59:16
Audio #1
ID : 2
Format : AAC
Format/Info : Advanced Audio Codec
Format profile : LC
Codec ID : 40
Duration : 19mn 57s
Bit rate mode : Variable
Bit rate : 192 Kbps
Maximum bit rate : 196 Kbps
Channel(s) : 2 channels
Channel positions : Front: L R
Sampling rate : 48.0 KHz
Compression mode : Lossy
Stream size : 27.4 MiB (8%)
Title : OVA [MCShaman]
Language : Russian
Encoded date : UTC 2012-02-21 20:59:14
Tagged date : UTC 2012-02-21 20:59:16
Audio #2
ID : 3
Format : AAC
Format/Info : Advanced Audio Codec
Format profile : LC
Codec ID : 40
Duration : 19mn 57s
Bit rate mode : Variable
Bit rate : 128 Kbps
Maximum bit rate : 172 Kbps
Channel(s) : 2 channels
Channel positions : Front: L R
Sampling rate : 44.1 KHz
Compression mode : Lossy
Stream size : 18.3 MiB (5%)
Encoded date : UTC 2012-02-21 20:59:15
Tagged date : UTC 2012-02-21 20:59:16

Создавать темы 31-Май-2015 21:57

[Профиль]  [ЛС] 

daniellya

Стаж: 5 лет 6 месяцев

Сообщений: 338

Симпатии: 29

>Автор оригинала: Торияма Акира
Оригинала манги, а не этого ремейка днища.
Поехавшая тян, Naho Ooishi, плюнула на сюжет Зета, на канон, как только она могла, ё-моё, показать отца, революционера, таким хлюпиком и трусом, к тому же идиотом.


Последний раз редактировалось: daniellya (2015-05-31 22:32), всего редактировалось 1 раз

Создавать темы 31-Май-2015 22:21

[Профиль]  [ЛС] 

SoluSoull ®

Стаж: 2 года 7 месяцев

Сообщений: 379

Симпатии: 452

938609>Автор оригинала: Торияма Акира
что то не так ?

Создавать темы 31-Май-2015 22:24

[Профиль]  [ЛС] 
Показать сообщения:    
Ответить на тему

Текущее время: 23-Окт 09:27

Часовой пояс: UTC + 5



Вы не можете начинать темы
Вы не можете отвечать на сообщения
Вы не можете редактировать свои сообщения
Вы не можете удалять свои сообщения
Вы не можете голосовать в опросах
Вы не можете прикреплять файлы к сообщениям
Вы не можете скачивать файлы