Драгонболл Кай / Dragon Ball Kai (Торияма Акира) [TV] [Без хардсаба] [01-97 из 97] [RUS(int),JAP] [2009г., приключения, комедия, фэнтези, сёнэн HDTVRip] [720p]

Ответить на тему
 

SoluSoull ®

Стаж: 2 года 5 месяцев

Сообщений: 379

Симпатии: 452

Dragon Ball Kai
Драгонболл Кай-Производство: Япония
Год выпуска: 2009
Жанр: приключения, комедия, фэнтези, сёнэн
Тип: ТВ (97 эп.), 25 мин.-Перевод:
Озвучка от Shoker-Режиссёр: Торияма Акира
Автор оригинала: Торияма Акира
Студия: TOEI ANIMATION-Описание: Dragon Ball Kai - это отреставрированная версия Dragon Ball Z, сделанная в честь двадцатилетия сериала, который транслировался с 1989 по 1996 год. Сериал строго следует манге (без филлеров), аниме отреставрировано с помощью последних цифровых технологий. Включает HD, переделанные звуковые эффекты (новые записи диалогов) и саундтреки.
Сон Гоку живет спокойной жизнью, но затем появляются враги из космоса, планирующие вторжение на Землю. Будущее человечества под угрозой. Сон Гоку со своими друзьями сражаются против врагов, но они едва не погибают в битве против значительно более сильного противника. У сына Сон Гоку Гохана репутация труса, но он приходит на помощь отцу и становится сильнее его на некоторое время-Качество: HDRip \ Формат: MKV
Тип видео: без хардсаба
Видео: AVC, 1280x720, ~ 1936 Кбит/сек, 23.976 кадр/сек
Аудио RUS: VORBIS, 48,0 КГц, ~ 192 Кбит/сек, 2 канала
Аудио JAP: VORBIS, 48,0 КГц, ~ 160 Кбит/сек, 2 канала-

Скриншоты

MI

General
Unique ID : 188432587244452144458790116386672277144 (0x8DC2CBD58C79C1098C3BB1BFB5B8F698)
Complete name : F:\[RAZNEW]\Dragon Ball\сезон 2R\Dragonball_Kai_[01]_[Ru_Jp]_[HDTV-Rip_720p].mkv
Format : Matroska
Format version : Version 2
File size : 378 MiB
Duration : 22mn 59s
Overall bit rate mode : Variable
Overall bit rate : 2 298 Kbps
Movie name : Dragonball Kai - Επεισόδιο 1 - Η αυλαία της μάχης ανοίγει! O Son Goku επιστρέφει
Encoded date : UTC 2013-02-25 15:50:08
Writing application : mkvmerge v3.3.0 ('Language') built on Mar 24 2010 14:59:24
Writing library : libebml v0.8.0 + libmatroska v0.9.0
Video
ID : 1
Format : AVC
Format/Info : Advanced Video Codec
Format profile : [email protected]
Format settings, CABAC : Yes
Format settings, ReFrames : 3 frames
Codec ID : V_MPEG4/ISO/AVC
Duration : 22mn 59s
Bit rate : 1 900 Kbps
Nominal bit rate : 2 000 Kbps
Width : 1 280 pixels
Height : 720 pixels
Display aspect ratio : 16:9
Frame rate mode : Constant
Frame rate : 23.976 fps
Color space : YUV
Chroma subsampling : 4:2:0
Bit depth : 8 bits
Scan type : Progressive
Bits/(Pixel*Frame) : 0.086
Stream size : 313 MiB (83%)
Title : Japanese Video
Writing library : x264 core 67 r1137M 1fda882
Encoding settings : cabac=1 / ref=1 / deblock=1:-1:-1 / analyse=0x3:0x133 / me=umh / subme=7 / psy_rd=1.0:0.0 / mixed_ref=0 / me_range=16 / chroma_me=1 / trellis=2 / 8x8dct=1 / cqm=1 / deadzone=21,11 / chroma_qp_offset=-2 / threads=3 / nr=0 / decimate=0 / mbaff=0 / bframes=3 / b_pyramid=1 / b_adapt=2 / b_bias=0 / direct=3 / wpredb=1 / keyint=250 / keyint_min=25 / scenecut=40 / rc=2pass / bitrate=2000 / ratetol=1.0 / qcomp=0.60 / qpmin=10 / qpmax=51 / qpstep=4 / cplxblur=20.0 / qblur=0.5 / vbv_maxrate=50000 / vbv_bufsize=50000 / ip_ratio=1.40 / pb_ratio=1.30 / aq=1:1.00
Language : Japanese
Default : Yes
Forced : No
Audio #1
ID : 2
Format : Vorbis
Format settings, Floor : 1
Codec ID : A_VORBIS
Duration : 22mn 59s
Bit rate mode : Variable
Bit rate : 192 Kbps
Channel(s) : 2 channels
Sampling rate : 48.0 KHz
Compression mode : Lossy
Stream size : 31.6 MiB (8%)
Title : Rus
Writing library : libVorbis (Everywhere) (20100325 (Everywhere))
Language : Russian
Default : Yes
Forced : No
Audio #2
ID : 3
Format : Vorbis
Format settings, Floor : 1
Codec ID : A_VORBIS
Duration : 22mn 59s
Bit rate mode : Variable
Bit rate : 160 Kbps
Channel(s) : 2 channels
Sampling rate : 48.0 KHz
Compression mode : Lossy
Stream size : 26.3 MiB (7%)
Title : Japanese Audio
Writing library : aoTuV b5c (UTC 2008-12-15)
Language : Japanese
Default : No
Forced : No


Последний раз редактировалось: SoluSoull (2015-06-03 16:39), всего редактировалось 1 раз

Создавать темы 31-Май-2015 23:17

[Профиль]  [ЛС] 

daniellya

Стаж: 5 лет 4 месяца

Сообщений: 338

Симпатии: 29

http://img.tas-ix.net/images/2015/05/31/eb5574ca332...75bd485f66e4.jpg
Yaranaika.jpeg
>отреставрированная версия
кастрированная
>строго следует манге (без филлеров)
неправда
>отреставрировано с помощью последних цифровых технологий
сделали педиков, у которых кожа блестит как масло, на фоны забили, ага, отреставрировано
>Включает HD
мыльноватый дешёвый графон под современный
>переделанные звуковые эффекты (новые записи диалогов) и саундтреки
гореть в аду за такой дешёвый ОСТ, и не взять Хиронобу Кагеяму (он же Mr DBZ) для исполнения опенинга. Ах да, ещё желаю того же группе Flow, которая ни осилила душевно спеть Cha-La Head-Cha-La.

Создавать темы 01-Июн-2015 00:02

[Профиль]  [ЛС] 

SoluSoull ®

Стаж: 2 года 5 месяцев

Сообщений: 379

Симпатии: 452

Yaranaika.jpeg
НУ ваше не понял, как всегда не понятная фигня с расширением .jpeg
хмм на всё остальное даж не знаю как откоментить, может одного на вкус и цвет фло.. т.е товарищей нет прокатит ?)

Создавать темы 01-Июн-2015 00:45

[Профиль]  [ЛС] 

daniellya

Стаж: 5 лет 4 месяца

Сообщений: 338

Симпатии: 29

>ваше не понял
жаст гугл ит.
Не на вкус и цвет, а фанаты ждали HD старого сериала, с сохранением такой-то душевной атмосферы, приятных фонов и музыки, а получили черте что. Это все равно, если скажем полнометражку Final Fantasy 7 пересняли бы и сделали графон как в экранизации Aku no Hana.

Создавать темы 01-Июн-2015 07:39

[Профиль]  [ЛС] 
Показать сообщения:    
Ответить на тему

Текущее время: 22-Авг 23:52

Часовой пояс: UTC + 5



Вы не можете начинать темы
Вы не можете отвечать на сообщения
Вы не можете редактировать свои сообщения
Вы не можете удалять свои сообщения
Вы не можете голосовать в опросах
Вы не можете прикреплять файлы к сообщениям
Вы не можете скачивать файлы