Взрослые дочери/ Сезон: 1 / Серии: 12 из 12 (Андрей Эшпай) [2015, Мелодрама, HDTVRip]

Ответить на тему
 

Сергей74 ®

Стаж: 2 года 8 месяцев

Сообщений: 211

Симпатии: 293

Взрослые дочери
Год выпуска: 2015
Производство: Россия, Красный квадрат кино
Жанр: Мелодрама,Драма
Продолжительность:12 серий ~ 00:50:00
Субтитры: нет
Режиссёр: Андрей Эшпай
В ролях: Игорь Гордин, Юлия Пересильд, Екатерина Тарасова, Полина Лазарева, Мария Фомина, Татьяна Казючиц, Екатерина Агеева, Яна Гладких, Сергей Юшкевич, Инга Оболдина, Евгения Симонова, Никита Салопин, Алексей Вертков, Ольга (Лёля) Баранова, Александр Дуденков, Александр Андриенко, Анастасия Мытражик, Ян Воробьёв, Олеся Лагута, Диана Енакаева, Рита Дьяченкова
Описание: Капитан милиции Алексей Колганов, мужественный офицер и честный человек, прошедший Афганистан, отец шести дочерей, по недоразумению попадает в эпицентр бандитских разборок. Чтобы отвести опасность от семьи, Колганов вынужден скрываться за границей. Вернувшись, он узнает, что жена умерла, родив ему долгожданного мальчика. Ребенка тут же усыновили, и теперь Алексей должен найти своего единственного сына.
Доп. информация: ПЕРЕЗАКАЧАЙТЕ торрент файл добавлены 9,10,11,12 СЕРИИ
Качество: HDTVRip
Формат: MP4
Видео кодек: MPEG-4 AVC
Аудио кодек: AC3
Видео: MPEG-4 AVC, ~ 4400 Кбит/с, 1280x720, 25.000 кадр/с
Аудио: AC3, 2 ch, 192 Кбит/с

MI

General
Unique ID : 209744227431085208733730782058523143037 (0x9DCB44D1DBD29CFA927AECDC06D42B7D)
Complete name : D:\Vzroslye.docheri.2015.HDTVRip.(720p).MediaClub\Vzroslye.docheri.(01.seriya).2015.HDTVRip.(720p).MediaClub.mkv
Format : Matroska
Format version : Version 2
File size : 1.56 GiB
Duration : 50mn 19s
Overall bit rate : 4 426 Kbps
Encoded date : UTC 2015-05-26 03:57:21
Writing application : mkvmerge v7.8.0 ('River Man') 32bit built on Apr 3 2015 12:11:22
Writing library : libebml v1.3.1 + libmatroska v1.4.2
Video
ID : 1
Format : AVC
Format/Info : Advanced Video Codec
Format profile : [email protected]
Format settings, CABAC : Yes
Format settings, ReFrames : 8 frames
Codec ID : V_MPEG4/ISO/AVC
Duration : 50mn 19s
Bit rate : 4 233 Kbps
Width : 1 280 pixels
Height : 720 pixels
Display aspect ratio : 16:9
Frame rate : 25.000 fps
Color space : YUV
Chroma subsampling : 4:2:0
Bit depth : 8 bits
Scan type : Progressive
Bits/(Pixel*Frame) : 0.184
Stream size : 1.46 GiB (94%)
Writing library : x264 core 146 r2538 121396c
Encoding settings : cabac=1 / ref=8 / deblock=1:-3:-3 / analyse=0x3:0x113 / me=umh / subme=11 / psy=1 / psy_rd=1.00:0.20 / mixed_ref=1 / me_range=32 / chroma_me=1 / trellis=2 / 8x8dct=1 / cqm=0 / deadzone=21,11 / fast_pskip=0 / chroma_qp_offset=-3 / threads=12 / lookahead_threads=3 / sliced_threads=0 / nr=0 / decimate=0 / interlaced=0 / bluray_compat=0 / constrained_intra=0 / bframes=12 / b_pyramid=2 / b_adapt=2 / b_bias=0 / direct=3 / weightb=1 / open_gop=0 / weightp=2 / keyint=250 / keyint_min=25 / scenecut=40 / intra_refresh=0 / rc_lookahead=60 / rc=2pass / mbtree=0 / bitrate=4233 / ratetol=1.0 / qcomp=0.60 / qpmin=0 / qpmax=69 / qpstep=4 / cplxblur=20.0 / qblur=0.5 / vbv_maxrate=14000 / vbv_bufsize=14000 / nal_hrd=none / filler=0 / ip_ratio=1.40 / pb_ratio=1.30 / aq=3:0.80
Default : Yes
Forced : No
Audio
ID : 2
Format : AC-3
Format/Info : Audio Coding 3
Mode extension : CM (complete main)
Format settings, Endianness : Big
Codec ID : A_AC3
Duration : 50mn 19s
Bit rate mode : Constant
Bit rate : 192 Kbps
Channel(s) : 2 channels
Channel positions : Front: L R
Sampling rate : 48.0 KHz
Bit depth : 16 bits
Compression mode : Lossy
Stream size : 69.1 MiB (4%)
Default : Yes
Forced : No

Скриншоты








Последний раз редактировалось: Сергей74 (2015-06-17 18:13), всего редактировалось 6 раз(а)

Создавать темы 01-Июн-2015 14:36

[Профиль]  [ЛС] 

Сергей74 ®

Стаж: 2 года 8 месяцев

Сообщений: 211

Симпатии: 293

aa


Последний раз редактировалось: Сергей74 (2015-07-20 00:41), всего редактировалось 11 раз(а)

Создавать темы 02-Июн-2015 15:42

[Профиль]  [ЛС] 

Старый Дядька

Стаж: 5 лет 3 месяца

Сообщений: 566

Симпатии: 400

938834У кого белый ай пи ..пожалуйста подключитесь..пиры меня не видят..скачивание не идёт ... поднимете себе рейтинг
Белый IP не поможет.
Поможет только Teredo.
Но есть одно но - Teredo помогает только тем, у кого он установлен.
Причём Teredo должен быть установлен и с принимающей стороны и с отдающей.
И не важно какой там у этой стороны будет IP адрес.
Это Аксиома - доказательств не требуется.
Кстати - у меня два провайдера с белым IP адресом - но Teredo у меня стоит.

Создавать темы 02-Июн-2015 19:44

[Профиль]  [ЛС] 

Сергей74 ®

Стаж: 2 года 8 месяцев

Сообщений: 211

Симпатии: 293

aa


Последний раз редактировалось: Сергей74 (2015-07-20 10:39), всего редактировалось 8 раз(а)

Создавать темы 02-Июн-2015 20:21

[Профиль]  [ЛС] 

Сергей74 ®

Стаж: 2 года 8 месяцев

Сообщений: 211

Симпатии: 293

aa

Создавать темы 04-Июн-2015 23:44

[Профиль]  [ЛС] 

Ветер7799

Стаж: 4 года 9 месяцев

Сообщений: 7

... az

Создавать темы 09-Янв-2016 04:30

[Профиль]  [ЛС] 
Показать сообщения:    
Ответить на тему

Текущее время: 14-Дек 20:22

Часовой пояс: UTC + 5



Вы не можете начинать темы
Вы не можете отвечать на сообщения
Вы не можете редактировать свои сообщения
Вы не можете удалять свои сообщения
Вы не можете голосовать в опросах
Вы не можете прикреплять файлы к сообщениям
Вы не можете скачивать файлы