Пчёлка Майя в 3Д / Maya The Bee – Movie 3D (Алекс Стадерманн) [2014 г., мультфильм, фэнтези, приключения]

Ответить на тему
 

greensniper ®

Стаж: 2 года 4 месяца

Сообщений: 16

Симпатии: 10

Пчёлка Майя в 3Д / Maya The Bee – Movie 3D
Год выпуска: 2014
Страна: Австралия, Германия
Жанр: мультфильм, фэнтези, приключения
Продолжительность: 01:29:10
Перевод: Профессиональный (Дублированный)
Режиссер: Алекс Стадерманн
В ролях: Коко Джек Гиллис, Нина Шаттон, Коди Смит-МакФи
Описание: Легендарная пчелка наконец доросла до больших экранов. Жизнь её всегда радует различными незабываемые приключения, неугомонностью которые переворачивают все с ног наголову и притягивает к себе внимания маленьких ребят и взрослых. Но в этот раз на экранах представит уникальное и особо насыщенное события, про пчелку которая некогда не кого не оставит в беде и всегда придет на помощь. Она очень трудолюбивая и заботливая по этому и любит помогать другим. Какую бы работу ей не предлагали, она за все берется с большим удовольствием и всегда какие бы задачи не стояли перед ней выполняем на все 100%. В жизни главный её принцип, это найти что-то уникальное и познавательное, но и в тоже время невероятно интересное.Всегда в поисках и невероятном движении.
Качество: BDRip
Формат: MKV
Формат: 3D: Anamorph OverUnder / Вертикальная анаморфная стереопара
Видео кодек: H.264
Аудио кодек: AC3
Видео: AVC / 23,976 fps / 1920х1080p / 6840 Kbps
Аудио: Русский / AC3 / 48 KHz / 5.1 ch / 640 Kbps (iTunes)

Скриншоты



Медиа инфо

Формат : Matroska
Версия формата : Version 4 / Version 2
Размер файла : 4,21 Гбайт
Продолжительность : 1 ч. 28 м.
Общий поток : 6840 Кбит/сек
Дата кодирования : UTC 2015-01-11 01:52:15
Программа кодирования : mkvmerge v7.5.0 ('Glass Culture') 64bit built on Jan 4 2015 16:48:44
Библиотека кодирования : libebml v1.3.1 + libmatroska v1.4.2
Attachements : cover
Видео
Идентификатор : 1
Формат : AVC
Формат/Информация : Advanced Video Codec
Профиль формата : [email protected]
Параметр CABAC формата : Да
Параметр ReFrames формата : 4 кадра
Идентификатор кодека : V_MPEG4/ISO/AVC
Продолжительность : 1 ч. 28 м.
Битрейт : 6064 Кбит/сек
Ширина : 1920 пикселей
Высота : 1080 пикселей
Соотношение сторон : 16:9
Режим частоты кадров : Постоянный
Частота кадров : 23,976 кадра/сек
Цветовое пространство : YUV
Субдискретизация насыщенности : 4:2:0
Битовая глубина : 8 бит
Тип развёртки : Прогрессивная
Бит/(Пиксели*Кадры) : 0.122
Размер потока : 3,73 Гбайт (89%)
Заголовок : Maya The Bee – Movie (2014) 3D Half-OU 1080p BDRip
Библиотека кодирования : x264 core 144 r2525kMod 40bb568
Настройки программы : cabac=1 / ref=4 / deblock=1:-3:-3 / analyse=0x3:0x113 / me=umh / subme=11 / psy=1 / fade_compensate=0.00 / psy_rd=1.00:0.00 / mixed_ref=1 / me_range=48 / chroma_me=1 / trellis=2 / 8x8dct=1 / cqm=0 / deadzone=21,11 / fast_pskip=1 / chroma_qp_offset=-2 / threads=12 / lookahead_threads=3 / sliced_threads=0 / nr=0 / decimate=1 / interlaced=0 / bluray_compat=0 / constrained_intra=0 / fgo=0 / bframes=16 / b_pyramid=2 / b_adapt=2 / b_bias=0 / direct=1 / weightb=1 / open_gop=0 / weightp=2 / keyint=250 / keyint_min=23 / scenecut=40 / intra_refresh=0 / rc_lookahead=40 / rc=crf / mbtree=0 / crf=17.5000 / qcomp=0.60 / qpmin=10 / qpmax=51 / qpstep=4 / vbv_maxrate=62500 / vbv_bufsize=78125 / crf_max=0.0 / nal_hrd=none / filler=0 / frame-packing=4 / ip_ratio=1.40 / pb_ratio=1.30 / aq=1:1.00
Язык : English
Default : Да
Forced : Нет
Аудио
Идентификатор : 2
Формат : AC-3
Формат/Информация : Audio Coding 3
Расширение режима : CM (complete main)
Параметр Endianness формата : Big
Идентификатор кодека : A_AC3
Продолжительность : 1 ч. 28 м.
Вид битрейта : Постоянный
Битрейт : 640 Кбит/сек
Каналы : 6 каналов
Расположение каналов : Front: L C R, Side: L R, LFE
Частота : 48,0 КГц
Битовая глубина : 16 бит
Метод сжатия : С потерями
Размер потока : 404 Мбайт (9%)
Заголовок : [iTunes] Dub - AC3 5.1 @ 640 kbps
Язык : Russian
Default : Да
Forced : Нет
Меню
00:00:00.000 : :00:00:00.000
00:00:26.317 : :00:00:26.317
00:08:05.984 : :00:08:05.984
00:13:21.258 : :00:13:21.258
00:15:45.859 : :00:15:45.859
00:23:21.482 : :00:23:21.482
00:27:33.942 : :00:27:33.942
00:36:37.527 : :00:36:37.527
00:39:46.675 : :00:39:46.675
00:49:49.318 : :00:49:49.318
01:00:39.760 : :01:00:39.760
01:09:23.617 : :01:09:23.617
01:16:40.595 : :01:16:40.595

Создавать темы 01-Июн-2015 14:55

[Профиль]  [ЛС] 
Показать сообщения:    
Ответить на тему

Текущее время: 20-Сен 14:26

Часовой пояс: UTC + 5



Вы не можете начинать темы
Вы не можете отвечать на сообщения
Вы не можете редактировать свои сообщения
Вы не можете удалять свои сообщения
Вы не можете голосовать в опросах
Вы не можете прикреплять файлы к сообщениям
Вы не можете скачивать файлы