Хоббит: Битва пяти воинств 3D/ The Hobbit: The Battle of the Five Armies 3D (Питер Джексон) [2014, фэнтези, приключения, Bdrip] Dub (iTunes) + Original

Ответить на тему
 

greensniper ®

Стаж: 2 года 3 месяца

Сообщений: 16

Симпатии: 10

Хоббит: Битва пяти воинств 3D/ The Hobbit: The Battle of the Five Armies 3D
Год выпуска: 2014
Страна: Новая Зеландия, США
Жанр: фэнтези, приключения
Продолжительность: 02:24:28
Перевод: Профессиональный (Дублированный)
Режиссер: Питер Джексон
В ролях: Мартин Фриман, Иэн МакКеллен, Ричард Армитедж
Описание: Когда отряд из тринадцати гномов нанимал хоббита Бильбо Бэгинса в качестве взломщика и четырнадцатого, «счастливого», участника похода к Одинокой горе, Бильбо полагал, что его приключения закончатся, когда он выполнит свою задачу — найдет сокровище, которое так необходимо предводителю гномов Торину. Путешествие в Эребор, захваченное драконом Смаугом королевство гномов, оказалось еще более опасным, чем предполагали гномы и даже Гэндальф — мудрый волшебник, протянувший Торину и его отряду руку помощи.
В погоню за гномами устремилась армия орков, ведомых пробудившимся в руинах древним злом, а эльфы и люди, с которыми Бильбо и его товарищам пришлось иметь дело во время путешествия и которые пострадали от последствий желания гномов вернуть свой дом, предъявили права на щедрое вознаграждение — часть сокровищ Одинокой горы. Скоро неподалеку от Одинокой горы встретятся пять армий, и лишь кровопролитная битва определит результаты смелого гномьего похода.
Качество: BDRip
Формат: MKV
Формат: 3D: Anamorph OverUnder / Вертикальная анаморфная стереопара
Видео кодек: H.264
Аудио кодек: AC3
Видео: AVC / 23,976 fps / 1920х1080p / 15000 Kbps
Аудио 1: Русский / AC3 / 48 KHz / 5.1 ch / 448 Kbps (iTunes)
Аудио 2: Украинский / AC3 / 48 KHz / 2.0 ch / 192 Kbps (iTunes)
Аудио 3: English/ AC3 / 48 KHz / 5.1 ch / 1509 Kbps (Original)

Скриншоты



Медиа инфо

Формат : Matroska
Версия формата : Version 3 / Version 2
Размер файла : 17,3 Гбайт
Продолжительность : 2 ч. 24 м.
Общий поток : 17,1 Мбит/сек
Дата кодирования : UTC 2015-03-08 10:50:35
Программа кодирования : mkvmerge v5.2.0 ('I can't explain') built on Dec 18 2011 18:12:03
Библиотека кодирования : libebml v1.2.3 + libmatroska v1.3.0
Видео
Идентификатор : 1
Формат : AVC
Формат/Информация : Advanced Video Codec
Профиль формата : [email protected]
MultiView_Count : 2
MultiView_Layout : Top-Bottom (left eye first)
Параметр CABAC формата : Да
Параметр ReFrames формата : 4 кадра
Идентификатор кодека : V_MPEG4/ISO/AVC
Продолжительность : 2 ч. 24 м.
Битрейт : 15,0 Мбит/сек
Ширина : 1920 пикселей
Высота : 1080 пикселей
Соотношение сторон : 16:9
Режим частоты кадров : Постоянный
Частота кадров : 23,976 кадра/сек
Цветовое пространство : YUV
Субдискретизация насыщенности : 4:2:0
Битовая глубина : 8 бит
Тип развёртки : Прогрессивная
Бит/(Пиксели*Кадры) : 0.302
Размер потока : 14,8 Гбайт (85%)
Библиотека кодирования : x264 core 142 r2453 ea0ca51
Настройки программы : cabac=1 / ref=4 / deblock=1:-2:0 / analyse=0x3:0x113 / me=umh / subme=9 / psy=1 / psy_rd=1.00:0.00 / mixed_ref=1 / me_range=32 / chroma_me=1 / trellis=2 / 8x8dct=1 / cqm=0 / deadzone=21,11 / fast_pskip=1 / chroma_qp_offset=-2 / threads=6 / lookahead_threads=1 / sliced_threads=0 / nr=0 / decimate=1 / interlaced=0 / bluray_compat=0 / constrained_intra=0 / bframes=7 / b_pyramid=0 / b_adapt=1 / b_bias=0 / direct=1 / weightb=1 / open_gop=0 / weightp=2 / keyint=250 / keyint_min=23 / scenecut=40 / intra_refresh=0 / rc_lookahead=40 / rc=2pass / mbtree=1 / bitrate=15000 / ratetol=1.0 / qcomp=0.60 / qpmin=0 / qpmax=69 / qpstep=4 / cplxblur=20.0 / qblur=0.5 / vbv_maxrate=40000 / vbv_bufsize=30000 / nal_hrd=none / filler=0 / frame-packing=4 / ip_ratio=1.40 / aq=1:0.70
Язык : English
Default : Да
Forced : Нет
Аудио #1
Идентификатор : 2
Формат : AC-3
Формат/Информация : Audio Coding 3
Расширение режима : CM (complete main)
Параметр Endianness формата : Big
Идентификатор кодека : A_AC3
Продолжительность : 2 ч. 24 м.
Вид битрейта : Постоянный
Битрейт : 448 Кбит/сек
Каналы : 6 каналов
Расположение каналов : Front: L C R, Side: L R, LFE
Частота : 48,0 КГц
Битовая глубина : 16 бит
Метод сжатия : С потерями
Размер потока : 463 Мбайт (3%)
Заголовок : DUB, iTunes
Язык : Russian
Default : Да
Forced : Нет
Аудио #2
Идентификатор : 3
Формат : AC-3
Формат/Информация : Audio Coding 3
Расширение режима : CM (complete main)
Параметр Endianness формата : Big
Идентификатор кодека : A_AC3
Продолжительность : 2 ч. 24 м.
Вид битрейта : Постоянный
Битрейт : 192 Кбит/сек
Каналы : 2 канала
Расположение каналов : Front: L R
Частота : 48,0 КГц
Битовая глубина : 16 бит
Метод сжатия : С потерями
Размер потока : 199 Мбайт (1%)
Заголовок : DUB, iTunes
Язык : Ukrainian
Default : Нет
Forced : Нет
Аудио #3
Идентификатор : 4
Формат : DTS
Формат/Информация : Digital Theater Systems
Режим : 16
Параметр Endianness формата : Big
Идентификатор кодека : A_DTS
Продолжительность : 2 ч. 24 м.
Вид битрейта : Постоянный
Битрейт : 1509 Кбит/сек
Каналы : 6 каналов
Расположение каналов : Front: L C R, Side: L R, LFE
Частота : 48,0 КГц
Битовая глубина : 24 бит
Метод сжатия : С потерями
Размер потока : 1,52 Гбайт (9%)
Заголовок : Original
Язык : English
Default : Нет
Forced : Нет
Текст #1
Идентификатор : 5
Формат : UTF-8
Идентификатор кодека : S_TEXT/UTF8
Идентификатор кодека/Информация : UTF-8 Plain Text
Заголовок : Forced
Язык : Russian
Default : Да
Forced : Нет
Текст #2
Идентификатор : 6
Формат : UTF-8
Идентификатор кодека : S_TEXT/UTF8
Идентификатор кодека/Информация : UTF-8 Plain Text
Заголовок : Forced
Язык : Ukrainian
Default : Нет
Forced : Нет
Текст #3
Идентификатор : 7
Формат : UTF-8
Идентификатор кодека : S_TEXT/UTF8
Идентификатор кодека/Информация : UTF-8 Plain Text
Заголовок : Full
Язык : English
Default : Нет
Forced : Нет


Последний раз редактировалось: greensniper (2015-06-01 23:17), всего редактировалось 2 раз(а)

Создавать темы 01-Июн-2015 16:52

[Профиль]  [ЛС] 

Каротажник

Стаж: 3 года 10 месяцев

Сообщений: 195

Симпатии: 211

greensniper, нужно постер значительно меньше поставить!
выложите Медиа инфо

Создавать темы 01-Июн-2015 20:52

[Профиль]  [ЛС] 

Lolzsch

Стаж: 2 года 5 месяцев

Сообщений: 51

Симпатии: 196

938732greensniper, нужно постер значительно меньше поставить!
выложите Медиа инфо
Мне просто интересно где правило по ограничению постера?

Комментарий от Каротажник


Lolzsch
размер постера не более 400х500 px

Создавать темы 01-Июн-2015 21:02

[Профиль]  [ЛС] 

greensniper ®

Стаж: 2 года 3 месяца

Сообщений: 16

Симпатии: 10

.....


Последний раз редактировалось: greensniper (2015-06-01 23:16), всего редактировалось 1 раз

Создавать темы 01-Июн-2015 23:05

[Профиль]  [ЛС] 

greensniper ®

Стаж: 2 года 3 месяца

Сообщений: 16

Симпатии: 10

938732greensniper, нужно постер значительно меньше поставить!
выложите Медиа инфо
Модератор, вроде добавил медия инфо, и поменял постер проверте пожалуйста.

Создавать темы 01-Июн-2015 23:12

[Профиль]  [ЛС] 

greensniper ®

Стаж: 2 года 3 месяца

Сообщений: 16

Симпатии: 10

кто качает должен предупредить, последние 60 минут видео, аудио чуть отходит от видео - это очень заметно на английской дорожке и менее заметно на русской (но смотреть можно), не знаю как можно исправить, качал отсюда в таком виде (перекачивать нет ресурсов - внешка платная): http://rutracker.in/viewtopic.php?f=294&t=16192...b8cef90593122919

Создавать темы 01-Июн-2015 23:52

[Профиль]  [ЛС] 

ekobana

Стаж: 4 года 11 месяцев

Сообщений: 26

Симпатии: 14

Сидеров: 259 Личеров: 12
взято с рутрекера.... З-зависть))

Создавать темы 12-Июн-2015 13:49

[Профиль]  [ЛС] 

ekobana

Стаж: 4 года 11 месяцев

Сообщений: 26

Симпатии: 14

Сидеров: 444 Личеров: 12

Создавать темы 12-Июн-2015 13:50

[Профиль]  [ЛС] 

shad12

Стаж: 5 лет 7 месяцев

Сообщений: 107

Симпатии: 13

Почему в английской дорожке в конце слова с изображением не совпадает

Создавать темы 15-Авг-2015 10:37

[Профиль]  [ЛС] 
Показать сообщения:    
Ответить на тему

Текущее время: 23-Авг 20:50

Часовой пояс: UTC + 5



Вы не можете начинать темы
Вы не можете отвечать на сообщения
Вы не можете редактировать свои сообщения
Вы не можете удалять свои сообщения
Вы не можете голосовать в опросах
Вы не можете прикреплять файлы к сообщениям
Вы не можете скачивать файлы