Петросян и женщины 2015.03.08 [2015 г., Юмор, DVB]

Ответить на тему
 

фазилов ®

Стаж: 3 года 8 месяцев

Сообщений: 310

Симпатии: 344

Петросян и женщины (2015.03.08)
Год выпуска: 2015
Страна: Россия
Жанр: Юмор
Продолжительность: 01:50:25
Описание: Праздничную программу 8 марта Евгений Петросян посвящает, конечно же, всем женщинам! Что не мешает пошутить и о мужчинах. Евгений Петросян разыграет различные сценки с артистками и даже сам примерит женские образы. Зрителей также ожидает сюрприз – они увидят таинственных женщин, в честь которых названа передача!
Качество: DVB
Формат: MPG
Видео кодек: MPEG2
Аудио кодек: MPEG Audio
Видео: MPEG2 Video 720x576 (4:3) 25.00fps ~2 765 Kb
Аудио: MPEG Audio 48000Hz 2 channels 192 Кбит/сек

mediainfo

General
Complete name : D:\Мои релизы\Петросян и женщины 2015.03.08 _DVB by kuzmichm2196 .mpg
Format : MPEG-PS
File size : 2.33 GiB
Duration : 1h 50mn
Overall bit rate mode : Variable
Overall bit rate : 3 017 Kbps
Writing library : (c) 1998-2012 Womble Multimedia, Inc. / MPEG Video Wizard DVD 5.0.1.100 (03/2011) / Sep 22 2012
Video
ID : 224 (0xE0)
Format : MPEG Video
Format version : Version 2
Format profile : [email protected]
Format settings, BVOP : Yes
Format settings, Matrix : Custom
Format settings, GOP : Variable
Duration : 1h 50mn
Bit rate mode : Variable
Bit rate : 2 765 Kbps
Maximum bit rate : 15.0 Mbps
Width : 720 pixels
Height : 576 pixels
Display aspect ratio : 4:3
Frame rate : 25.000 fps
Standard : PAL
Color space : YUV
Chroma subsampling : 4:2:0
Bit depth : 8 bits
Scan type : Interlaced
Scan order : Top Field First
Compression mode : Lossy
Bits/(Pixel*Frame) : 0.267
Time code of first frame : 00:00:00:00
Time code source : Group of pictures header
Stream size : 2.13 GiB (92%)
Writing library : (c) 1998-2012 Womble Multimedia, Inc. / MPEG Video Wizard DVD 5.0.1.100 (03/2011) / Sep 22 2012
Audio
ID : 192 (0xC0)
Format : MPEG Audio
Format version : Version 1
Format profile : Layer 2
Duration : 1h 50mn
Bit rate mode : Constant
Bit rate : 192 Kbps
Channel(s) : 2 channels
Sampling rate : 48.0 KHz
Compression mode : Lossy
Delay relative to video : -80ms
Stream size : 152 MiB (6%)

Скриншоты


Создавать темы 01-Июн-2015 17:02

[Профиль]  [ЛС] 

drnemo

Стаж: 5 лет 9 месяцев

Сообщений: 89

Симпатии: 14

раздачу пожалуйста!

Создавать темы 09-Апр-2016 20:55

[Профиль]  [ЛС] 
Показать сообщения:    
Ответить на тему

Текущее время: 20-Окт 15:51

Часовой пояс: UTC + 5



Вы не можете начинать темы
Вы не можете отвечать на сообщения
Вы не можете редактировать свои сообщения
Вы не можете удалять свои сообщения
Вы не можете голосовать в опросах
Вы не можете прикреплять файлы к сообщениям
Вы не можете скачивать файлы