Секса круглый ноль 2 / Saek-jeuk-shi-gong-ssi-zeun-too (Тэ-юн Юн) [2007, Южная Корея, драма, мелодрама, комедия, HDRip] (VO)

Ответить на тему
 

Davron1402 ®

Стаж: 3 года 11 месяцев

Сообщений: 136

Симпатии: 122

Секса круглый ноль 2 / Saek-jeuk-shi-gong-ssi-zeun-too- Страна: Южная Корея
Жанр: драма, мелодрама, комедия
Год выпуска: 2007
Продолжительность: 01:53:04
Перевод: Одноголосый закадровый
Cубтитры: нет
Режиссер: Тэ-юн Юн
В ролях: Гон-у Пэ, Чхве Ин Сук, Чхве Сон Гук, Ха Чжи Вон, Чжи-Ен Хонг, Дэнис Кан, Чон Ким, Ким Хён Иль, Чжон-Хон Ли, Чжон-рэ Ли
Описание: Картина рассказывает про то, что же все-таки важнее для молодежи, что у них стоит на первом плане…-Качество видео: HDRip
Формат видео: AVI
Видео: MPEG-4 Visual, 640 x 272 (2.35:1), 23.976 fps, 1 274 Kbps
Аудио: MPEG Audio, 44.1 KHz, 2 channels, 320 Kbps- 

MediaInfo

Имя файла: Секса круглый ноль - 2.avi
Формат файла: .avi (AVI)
Размер файла: 1.27 GB
Длительность: 1h 53mn
Навигация по главам: Нет
Bitrate (все потоки): 1 604 Kbps
Название: Секса круглый ноль - 2
Тип потока: Видео
Длительность: 01:53:04
Кодек: MPEG-4 Visual
Кодек/Профиль: Advanced [email protected]
Кодек/ID: XVID
Размеры изображения: 640 x 272 (2.35:1)
Частота кадров: 23.976 fps
Размер потока: 1.01 GiB (79%)
Битрейт: 1 274 Kbps
Библиотека кодирования: XviD 1.0.3 (UTC 2004-12-20)
Цветовое пространство: YUV
Тип развёртки: Progressive
Глубина: 8 bits
Тип потока: Звук #1
Длительность: 01:53:04.000
Кодек: MPEG Audio
Кодек/Профиль: Layer 3
Кодек/ID: 55
Частота дискретизации: 44.1 KHz
Каналов: 2 channels
Битрейт: 320 Kbps
Битрейт/тип: Constant
Размер потока: 259 MiB (20%)
Метод сжатия: Lossy

Скриншоты



Создавать темы 01-Июн-2015 17:04

[Профиль]  [ЛС] 

Davron1402 ®

Стаж: 3 года 11 месяцев

Сообщений: 136

Симпатии: 122

Проверите уже

Создавать темы 02-Июн-2015 09:17

[Профиль]  [ЛС] 
Показать сообщения:    
Ответить на тему

Текущее время: 17-Дек 01:40

Часовой пояс: UTC + 5



Вы не можете начинать темы
Вы не можете отвечать на сообщения
Вы не можете редактировать свои сообщения
Вы не можете удалять свои сообщения
Вы не можете голосовать в опросах
Вы не можете прикреплять файлы к сообщениям
Вы не можете скачивать файлы