Преследуемый / Persecuted (Daniel Lusko) [2014, США, боевик, триллер, драма, детектив, HDRip] [iTunes]

Ответить на тему
 

Fury_ ®

Стаж: 2 года 5 месяцев

Сообщений: 22

Симпатии: 14

Преследуемый / Persecuted--«And you shall suffer as Christ»--

Страна: США / Indieproduction, One Media, Vocal Yokels

Жанр: Боевик, триллер, драма, детектив
Год выпуска: 2014
Продолжительность: 01:31:06
Режиссер: Daniel Lusko
Перевод: Профессиональное (многоголосное) [iTunes]

В ролях: Джеймс Римар, Дин Стокуэлл, Рауль Трухильо, Брюс Дэвисон, Фред Долтон Томпсон, Табата Шон, Марк Сивертсен, Мэттью Пейдж, Дэвид Хаус, Крис Муто--Описание: Когда американский сенатор Дональд Харрисон и сторонники Лютера похищают и убивают невинную девочку-подростка, развязывается беспрецедентное преследование проповедника. Скрываясь от полиции, Лютер отправляется на поиски правды, и в результате беглый евангелист сталкивается с шокирующей истиной. А в это же время развязанная кампания по его преследованию угрожает всему христианскому сообществу в Америке.--Качество видео: BDRip
Формат видео: AVI
Видео: 1755 kb/s, 720x304
Аудио: AC3, 384 kb/s (6 ch)
--

MediaInfo

General
Complete name : E:\Persecuted.2014.P.BDRip.1400MB.avi
Format : AVI
Format/Info : Audio Video Interleave
File size : 1.37 GiB
Duration : 1h 31mn
Overall bit rate : 2 148 Kbps
Writing application : VirtualDubMod 1.5.10.3 | www.virtualdub-fr.org || (build 2550/release)
Writing library : VirtualDubMod build 2550/release
Video
ID : 0
Format : MPEG-4 Visual
Format profile : Advanced [email protected]
Format settings, BVOP : 2
Format settings, QPel : No
Format settings, GMC : No warppoints
Format settings, Matrix : Default (MPEG)
Codec ID : XVID
Codec ID/Hint : XviD
Duration : 1h 31mn
Bit rate : 1 755 Kbps
Width : 720 pixels
Height : 304 pixels
Display aspect ratio : 2.35:1
Frame rate : 23.976 fps
Color space : YUV
Chroma subsampling : 4:2:0
Bit depth : 8 bits
Scan type : Progressive
Compression mode : Lossy
Bits/(Pixel*Frame) : 0.334
Stream size : 1.12 GiB (82%)
Writing library : XviD 1.2.1 (UTC 2008-12-04)
Audio
ID : 1
Format : AC-3
Format/Info : Audio Coding 3
Mode extension : CM (complete main)
Codec ID : 2000
Duration : 1h 31mn
Bit rate mode : Constant
Bit rate : 384 Kbps
Channel(s) : 6 channels
Channel positions : Front: L C R, Side: L R, LFE
Sampling rate : 48.0 KHz
Bit depth : 16 bits
Compression mode : Lossy
Stream size : 250 MiB (18%)
Alignment : Split accross interleaves
Interleave, duration : 42 ms (1.00 video frame)
Interleave, preload duration : 500 ms

Скриншоты






Последний раз редактировалось: Fury_ (2015-06-02 08:07), всего редактировалось 1 раз

Создавать темы 01-Июн-2015 17:41

[Профиль]  [ЛС] 

kat222000

Стаж: 6 лет 4 месяца

Сообщений: 608

Симпатии: 1055

Перевод: Профессиональное (многоголосное)

Создавать темы 01-Июн-2015 22:26

[Профиль]  [ЛС] 
Показать сообщения:    
Ответить на тему

Текущее время: 18-Авг 00:23

Часовой пояс: UTC + 5



Вы не можете начинать темы
Вы не можете отвечать на сообщения
Вы не можете редактировать свои сообщения
Вы не можете удалять свои сообщения
Вы не можете голосовать в опросах
Вы не можете прикреплять файлы к сообщениям
Вы не можете скачивать файлы