Город героев 3D / Big Hero 6 3D (Дон Холл, Крис Уильямс) [2014 г., мультфильм, фантастика, комедия, семейный, боевик, BDrip, HSBS]

Ответить на тему
 

greensniper ®

Стаж: 2 года 6 месяцев

Сообщений: 16

Симпатии: 10

Город героев 3D / Big Hero 6 3D
Год выпуска: 2014
Страна: США
Жанр: мультфильм, фантастика, комедия, семейный, боевик
Продолжительность: 01:41:52
Перевод: Профессиональный (Дублированный)
Режиссер: Дон Холл, Крис Уильямс
В ролях: Райан Поттер, Скотт Эдсит, Дэниэл Хенни
Описание: Юный Хиро Хамада — прирожденный изобретатель и гений конструирования роботов. Вместе со старшим братом Тадаши они воплощают в жизнь самые передовые идеи в Техническом университете города будущего Сан-Франсокио. После серии загадочных событий друзья оказываются в центре коварного заговора. Отчаявшись, Хиро решает использовать веселого и добродушного экспериментального робота Бэймакса, перепрограммировав его в неуязвимую боевую машину.
Качество: BDRip
Формат: MKV
Формат 3D: Вертикальная стереопара
Видео кодек: H.264
Аудио кодек: AC3
Видео: AVC / 23,976 fps / 1920х1080p / 25200 Kbps
Аудио 1: Русский / AC3 / 48 KHz / 5.1 ch / 384 Kbps (Dub)
Аудио 2: Русский / DTS / 48 KHz / 5.1 ch / 1509 Kbps (Dub)
Аудио 3: Русский / DTS / 48 KHz / 5.1 ch / 1509 Kbps (Dub)
Аудио 4: Украинский / DTS / 48 KHz / 2.0 ch / 192 Kbps (Dub)
Аудио 5: English / DTS / 48 KHz / 5.1 ch / 1509 Kbps (Dub)

Скриншоты



Медиа инфо

Формат : Matroska
Версия формата : Version 2
Размер файла : 22,2 Гбайт
Продолжительность : 1 ч. 41 м.
Режим общего битрейта : Переменный
Общий поток : 31,2 Мбит/сек
Название фильма : BD_VOLUME.Title0.Bluray3DRip
Дата кодирования : UTC 2015-03-12 19:35:54
Программа кодирования : DVDFab
Библиотека кодирования : libebml v0.7.8 + libmatroska v0.8.1
Видео
Идентификатор : 1
Формат : AVC
Формат/Информация : Advanced Video Codec
Профиль формата : [email protected]
Параметр CABAC формата : Да
Параметр ReFrames формата : 2 кадра
Идентификатор кодека : V_MPEG4/ISO/AVC
Продолжительность : 1 ч. 41 м.
Вид битрейта : Переменный
Максимальный битрейт : 25,2 Мбит/сек
Ширина : 1920 пикселей
Высота : 1080 пикселей
Соотношение сторон : 16:9
Режим частоты кадров : Постоянный
Частота кадров : 23,976 кадра/сек
Цветовое пространство : YUV
Субдискретизация насыщенности : 4:2:0
Битовая глубина : 8 бит
Тип развёртки : Прогрессивная
Default : Да
Forced : Нет
Аудио #1
Идентификатор : 2
Формат : AC-3
Формат/Информация : Audio Coding 3
Расширение режима : CM (complete main)
Параметр Endianness формата : Big
Идентификатор кодека : A_AC3
Продолжительность : 1 ч. 41 м.
Вид битрейта : Постоянный
Битрейт : 384 Кбит/сек
Каналы : 6 каналов
Расположение каналов : Front: L C R, Side: L R, LFE
Частота : 48,0 КГц
Битовая глубина : 16 бит
Метод сжатия : С потерями
Размер потока : 280 Мбайт (1%)
Язык : Russian
Default : Да
Forced : Нет
Аудио #2
Идентификатор : 3
Формат : DTS
Формат/Информация : Digital Theater Systems
Профиль формата : MA / Core
Режим : 16
Параметр Endianness формата : Big
Идентификатор кодека : A_DTS
Продолжительность : 1 ч. 41 м.
Вид битрейта : Переменный
Битрейт : Неизвестно / 1509 Кбит/сек
Каналы : 8 каналов / 6 каналов
Расположение каналов : Front: L C R, Side: L R, Back: L R, LFE / Front: L C R, Side: L R, LFE
Частота : 48,0 КГц
Битовая глубина : 24 бит
Метод сжатия : Без потерь / Lossy
Язык : Russian
Default : Нет
Forced : Нет
Аудио #3
Идентификатор : 4
Формат : DTS
Формат/Информация : Digital Theater Systems
Профиль формата : MA / Core
Режим : 16
Параметр Endianness формата : Big
Идентификатор кодека : A_DTS
Продолжительность : 1 ч. 41 м.
Вид битрейта : Переменный
Битрейт : Неизвестно / 1509 Кбит/сек
Каналы : 8 каналов / 6 каналов
Расположение каналов : Front: L C R, Side: L R, Back: L R, LFE / Front: L C R, Side: L R, LFE
Частота : 48,0 КГц
Битовая глубина : 24 бит
Метод сжатия : Без потерь / Lossy
Язык : Russian
Default : Нет
Forced : Нет
Аудио #4
Идентификатор : 5
Формат : AC-3
Формат/Информация : Audio Coding 3
Расширение режима : CM (complete main)
Параметр Endianness формата : Big
Идентификатор кодека : A_AC3
Продолжительность : 1 ч. 41 м.
Вид битрейта : Постоянный
Битрейт : 192 Кбит/сек
Каналы : 2 канала
Расположение каналов : Front: L R
Частота : 48,0 КГц
Битовая глубина : 16 бит
Метод сжатия : С потерями
Размер потока : 140 Мбайт (1%)
Язык : Ukrainian
Default : Нет
Forced : Нет
Аудио #5
Идентификатор : 6
Формат : DTS
Формат/Информация : Digital Theater Systems
Профиль формата : MA / Core
Режим : 16
Параметр Endianness формата : Big
Идентификатор кодека : A_DTS
Продолжительность : 1 ч. 41 м.
Вид битрейта : Переменный
Битрейт : Неизвестно / 1509 Кбит/сек
Каналы : 8 каналов / 6 каналов
Расположение каналов : Front: L C R, Side: L R, Back: L R, LFE / Front: L C R, Side: L R, LFE
Частота : 48,0 КГц
Битовая глубина : 24 бит
Метод сжатия : Без потерь / Lossy
Язык : English
Default : Нет
Forced : Нет
Меню
00:00:00.000 : en:(01)00:00:00:000
00:07:15.641 : en:(02)00:07:15:641
00:14:37.793 : en:(03)00:14:37:793
00:21:49.141 : en:(04)00:21:49:141
00:24:32.846 : en:(05)00:24:32:846
00:29:34.689 : en:(06)00:29:34:689
00:36:58.047 : en:(07)00:36:58:047
00:44:18.280 : en:(08)00:44:18:280
00:50:49.045 : en:(09)00:50:49:045
00:54:32.978 : en:(10)00:54:32:978
01:00:44.097 : en:(11)01:00:44:097
01:07:12.570 : en:(12)01:07:12:570
01:11:54.600 : en:(13)01:11:54:600
01:16:26.622 : en:(14)01:16:26:622
01:24:44.118 : en:(15)01:24:44:118
01:31:52.715 : en:(16)01:31:52:715
01:41:52.439 : en:(17)01:41:52:439


Последний раз редактировалось: greensniper (2015-06-01 23:34), всего редактировалось 3 раз(а)

Создавать темы 01-Июн-2015 19:23

[Профиль]  [ЛС] 

Каротажник

Стаж: 4 года 1 месяц

Сообщений: 195

Симпатии: 211

greensniper, нужно постер значительно меньше поставить!
выложите Медиа инфо

Создавать темы 01-Июн-2015 20:51

[Профиль]  [ЛС] 
Показать сообщения:    
Ответить на тему

Текущее время: 18-Ноя 13:31

Часовой пояс: UTC + 5



Вы не можете начинать темы
Вы не можете отвечать на сообщения
Вы не можете редактировать свои сообщения
Вы не можете удалять свои сообщения
Вы не можете голосовать в опросах
Вы не можете прикреплять файлы к сообщениям
Вы не можете скачивать файлы