Тренер / McFarland, USA (Ники Каро) [2015, США, драма, спорт, HDRip] MVO (Лицензия) + DVO (ColdFilm)

Ответить на тему
 

lotto ®

Стаж: 7 лет 11 месяцев

Сообщений: 221

Симпатии: 409

Тренер / McFarland, USA
«Champions can come from anywhere»
-- Страна: США
Жанр: драма, спорт
Год выпуска: 2015
Продолжительность: 02:09:30
Перевод: Профессиональный (многоголосый закадровый) Лицензия
Cубтитры: нет--Режиссер: Ники Каро
В ролях: Кевин Костнер, Рамиро Родригес, Карлос Праттс, Джонни Ортиз, Рафаэль Мартинез, Гектор Дюран, Серджо Авелар, Майкл Агеро, Диана-Мария Рива, Омар Лейва--Описание: История, основана на реальных событиях. В начале девяностых, в маленьком городке МакФарланд, профессиональный тренер создает команду по легкой атлетике из обычных сорванцов и мелких «хулиганов», и приводит эту команду до вершины спортивного Олимпа. Население МакФарланда - это 90 процентов латиноамериканцы, которые приехали в США под видом переселенцев и беженцев...-- --Качество видео: HDRip
Формат видео: AVI
Видео: XviD, 720x304, 1309 kb/s, 23.976 fps
Аудио: AC3, 48 KHz, 6 ch, 448 kbps (русский, многоголосый)
Аудио: MP3, 48 KHz, 2 ch, 192 kbps (русский, двухголосый)

MediaInfo

General
Complete name : McFarland.2015.HDRip.avi
Format : AVI
Format/Info : Audio Video Interleave
Format profile : OpenDML
Format settings : rec
File size : 1.77 GiB
Duration : 2h 9mn
Overall bit rate : 1 960 Kbps
Writing application : AVI-Mux GUI 1.17.8.3, Feb 16 201019:42:50
Video
ID : 0
Format : MPEG-4 Visual
Format profile : Advanced [email protected]
Format settings, BVOP : 4
Format settings, QPel : No
Format settings, GMC : 3 warppoints
Format settings, Matrix : Default (MPEG)
Codec ID : XVID
Codec ID/Hint : XviD
Duration : 2h 9mn
Bit rate : 1 310 Kbps
Width : 720 pixels
Height : 304 pixels
Display aspect ratio : 2.35:1
Frame rate : 23.976 fps
Color space : YUV
Chroma subsampling : 4:2:0
Bit depth : 8 bits
Scan type : Progressive
Compression mode : Lossy
Bits/(Pixel*Frame) : 0.250
Stream size : 1.18 GiB (67%)
Writing library : XviD 1.2.1 (UTC 2008-12-04)
Audio #1
ID : 1
Format : AC-3
Format/Info : Audio Coding 3
Mode extension : CM (complete main)
Format settings, Endianness : Big
Codec ID : 2000
Duration : 2h 9mn
Bit rate mode : Constant
Bit rate : 448 Kbps
Channel(s) : 6 channels
Channel positions : Front: L C R, Side: L R, LFE
Sampling rate : 48.0 KHz
Compression mode : Lossy
Stream size : 414 MiB (23%)
Alignment : Aligned on interleaves
Interleave, duration : 64 ms (1.54 video frames)
Interleave, preload duratio : 192 ms
Title : Licence
Audio #2
ID : 2
Format : MPEG Audio
Format version : Version 1
Format profile : Layer 3
Mode : Joint stereo
Codec ID : 55
Codec ID/Hint : MP3
Duration : 2h 9mn
Bit rate mode : Constant
Bit rate : 192 Kbps
Channel(s) : 2 channels
Sampling rate : 48.0 KHz
Compression mode : Lossy
Stream size : 178 MiB (10%)
Alignment : Aligned on interleaves
Interleave, duration : 24 ms (0.58 video frame)
Interleave, preload duratio : 192 ms
Writing library : LAME3.99.5

Скриншот c названием фильма

Скриншоты



Последний раз редактировалось: lotto (2015-06-15 20:52), всего редактировалось 2 раз(а)

Создавать темы 02-Июн-2015 10:21

[Профиль]  [ЛС] 

lotto ®

Стаж: 7 лет 11 месяцев

Сообщений: 221

Симпатии: 409

Добавил звук лицензии.

Создавать темы 15-Июн-2015 20:45

[Профиль]  [ЛС] 
Показать сообщения:    
Ответить на тему

Текущее время: 14-Дек 01:31

Часовой пояс: UTC + 5



Вы не можете начинать темы
Вы не можете отвечать на сообщения
Вы не можете редактировать свои сообщения
Вы не можете удалять свои сообщения
Вы не можете голосовать в опросах
Вы не можете прикреплять файлы к сообщениям
Вы не можете скачивать файлы