Тренер / McFarland (Ники Каро) [2015, США, драма, спорт, BDRip] (DVO : [ColdFilm]) (Original Eng)

Ответить на тему
 

RecobaZico ®

Стаж: 2 года 4 месяца

Сообщений: 22

Симпатии: 94

Тренер / McFarland
«Champions can come from anywhere»
Страна: США
Жанр: драма, спорт
Год выпуска: 2015
Продолжительность: 02:09:04-Перевод: Любительский (двухголосый закадровый) [ColdFilm]
Cубтитры: нет
Оригинальная аудиодорожка: английский-Режиссер: Ники Каро-В ролях: Кевин Костнер, Рамиро Родригес, Карлос Праттс, Джонни Ортиз, Рафаэль Мартинез, Гектор Дюран, Серджо Авелар, Майкл Агеро, Диана-Мария Рива, Омар Лейва-Описание: История, основана на реальных событиях. В начале девяностых, в маленьком городке МакФарланд, профессиональный тренер создает команду по легкой атлетике из обычных сорванцов и мелких «хулиганов», и приводит эту команду до вершины спортивного Олимпа. Население МакФарланда - это 90 процентов латиноамериканцы, которые приехали в США под видом переселенцев и беженцев...-Рейтинги:
 -Качество видео: BDRip
Формат видео: MKV-Видео: MPEG-4 AVC, 7720 Кбит/с, 1920x806
Аудио #1: Русский (AC3, 2 ch, 192 Кбит/с)
Аудио #2: английский (AC3, 6 ch,448 Кбит/с)

MediaInfo

Location: D:\Рекоба2015\McFarland.USA.2015.BDRip.1080p.HDR.mkv
Filename: McFarland.USA.2015.BDRip.1080p.HDR.mkv
File format: .mkv (Matroska)
File size: 7.53 GB
Duration: 2h 9mn
Navigate by chapters: Yep
Bitrate (all streams): 8 351 Kbps
File created...: UTC 2015-06-01 06:35:15
...with: mkvmerge v6.1.0 ('Old Devil') built on Mar 4 2013 09:10:42
...by using: libebml v1.3.0 + libmatroska v1.4.0
Title: ~V~
Stream type: Video
Duration: 02:09:04
Codec: AVC
Codec Profile: [email protected]
Codec ID: V_MPEG4/ISO/AVC
Codec/CABAC: Yes
Codec/ReFrames: 5 frames
Video Size: 1920 x 806 (2.40:1)
Frame rate: 23.976 fps
Stream size: 6.80 GiB (90%)
Bitrate: 7 720 Kbps
Codec library: x264 core 142 r0+4281 a3bf0d5 Test [[email protected] X86_64]
Colorspace: YUV
Scantype: Progressive
Bitdepth: 8 bits
Encoding settings: cabac=1 / ref=5 / deblock=1:-3:-3 / analyse=0x3:0x133 / me=umh / subme=11 / psy=1 / fade_compensate=0.00 / psy_rd=1.00:0.00 / mixed_ref=1 / me_range=48 / chroma_me=1 / trellis=2 / 8x8dct=1 / cqm=0 / deadzone=21,11 / fast_pskip=0 / chroma_qp_offset=-2 / threads=12 / lookahead_threads=1 / sliced_threads=0 / nr=0 / decimate=0 / interlaced=0 / bluray_compat=0 / constrained_intra=0 / fgo=0 / bframes=10 / b_pyramid=2 / b_adapt=2 / b_bias=0 / direct=3 / weightb=1 / open_gop=0 / weightp=2 / keyint=240 / keyint_min=23 / scenecut=40 / intra_refresh=0 / rc=2pass / mbtree=0 / bitrate=7720 / ratetol=1.0 / qcomp=0.60 / qpmin=0:0:0 / qpmax=69:69:69 / qpstep=4 / cplxblur=20.0 / qblur=0.5 / ip_ratio=1.40 / pb_ratio=1.30 / aq=4:0.95 / aq-sensitivity=11.00 / aq-factor=1.00:1.00:1.00 / aq2=1:0.70 / aq2-sensitivity=10.00 / aq2-factor=1.00:1.00:1.00 / aq3=1:[0.60:0.60]:[0.60:0.60]:[0.60:0.60]:[0.60:0.60] / aq3-sensitivity=9.00 / aq3-factor=[1.00:1.00]:[1.00:1.00]:[1.00:1.00] / aq3-boundary=192:64:24
Stream type: Audio #1
Language: Russian
Duration: 02:09:04.800
Codec: AC-3
Codec ID: A_AC3
Samplerate: 48.0 KHz
Channels: 2 channels
Bitrate: 192 Kbps
Bitrate/Mode: Constant
Stream size: 177 MiB (2%)
Bitdepth: 16 bits
Compression mode: Lossy
Stream type: Audio #2
Language: English
Duration: 02:09:04.800
Codec: AC-3
Codec ID: A_AC3
Samplerate: 48.0 KHz
Channels: 6 channels
Bitrate: 448 Kbps
Bitrate/Mode: Constant
Stream size: 414 MiB (5%)
Bitdepth: 16 bits
Compression mode: Lossy

Скриншоты





Последний раз редактировалось: RecobaZico (2015-06-03 12:47), всего редактировалось 3 раз(а)

Создавать темы 03-Июн-2015 08:43

[Профиль]  [ЛС] 

Топик был перенесен из форума Фильмы за 2015 в форум HD-AVC
LUKA

Создавать темы 03-Июн-2015 10:49

 

Каротажник

Стаж: 3 года 11 месяцев

Сообщений: 195

Симпатии: 211

RecobaZico, нужно постер значительно меньше поставить!

Создавать темы 03-Июн-2015 10:55

[Профиль]  [ЛС] 
Показать сообщения:    
Ответить на тему

Текущее время: 25-Сен 20:22

Часовой пояс: UTC + 5



Вы не можете начинать темы
Вы не можете отвечать на сообщения
Вы не можете редактировать свои сообщения
Вы не можете удалять свои сообщения
Вы не можете голосовать в опросах
Вы не можете прикреплять файлы к сообщениям
Вы не можете скачивать файлы