Ночной беглец / Run All Night (Хауме Кольет-Серра) [2015, США, боевик, триллер, драма, криминал, детектив, HDRip] Dub (iTunes) + Original

Ответить на тему
 

lotto ®

Стаж: 7 лет 8 месяцев

Сообщений: 221

Симпатии: 409

Ночной беглец / Run All Night
«Одна ночь, чтобы свести счёты»
-- Страна: США
Жанр: боевик, триллер, драма, криминал, детектив
Год выпуска: 2015
Продолжительность: 01:54:18
Перевод: Профессиональный (дублированный) iTunes
Cубтитры: нет--Режиссер: Хауме Кольет-Серра
В ролях: Лиам Нисон, Юэль Киннаман, Дженезис Родригез, Бойд Холбрук, Винсент Д’Онофрио, Коммон, Эд Харрис, Холт МакКэллани, Брюс МакГилл, Бо Напп--Описание: Фильм расскажет историю киллера, вступившего в конфликт с бывшим боссом и в итоге вынужденного пуститься в бега, чтобы защитить свою семью от преследования мафией и властями.-- --Качество видео: HDRip
Формат видео: AVI
Видео: Xvid, 720x304, 23.976fps, 1 711kbps
Аудио: AC3, 48 KHz, 6 ch, 384kbps (русский, дублированный)
Аудио 2: AC3, 48 KHz, 6 ch, 448kbps (оригинал)

MediaInfo

General
General
Complete name : Run All Night.2015.HDRip.avi
Format : AVI
Format/Info : Audio Video Interleave
Format profile : OpenDML
Format settings : rec
File size : 2.04 GiB
Duration : 1h 54mn
Overall bit rate : 2 551 Kbps
Writing application : AVI-Mux GUI 1.17.8.3, Feb 16 201019:42:50
Video
ID : 0
Format : MPEG-4 Visual
Format profile : Advanced [email protected]
Format settings, BVOP : 1
Format settings, QPel : No
Format settings, GMC : No warppoints
Format settings, Matrix : Custom
Codec ID : DX50
Codec ID/Hint : DivX 5
Duration : 1h 54mn
Bit rate : 1 711 Kbps
Width : 720 pixels
Height : 304 pixels
Display aspect ratio : 2.35:1
Frame rate : 23.976 fps
Color space : YUV
Chroma subsampling : 4:2:0
Bit depth : 8 bits
Scan type : Progressive
Compression mode : Lossy
Bits/(Pixel*Frame) : 0.326
Stream size : 1.37 GiB (67%)
Writing library : XviD 73
Audio #1
ID : 1
Format : AC-3
Format/Info : Audio Coding 3
Mode extension : CM (complete main)
Format settings, Endianness : Big
Codec ID : 2000
Duration : 1h 54mn
Bit rate mode : Constant
Bit rate : 384 Kbps
Channel(s) : 6 channels
Channel positions : Front: L C R, Side: L R, LFE
Sampling rate : 48.0 KHz
Compression mode : Lossy
Stream size : 314 MiB (15%)
Alignment : Aligned on interleaves
Interleave, duration : 64 ms (1.53 video frames)
Interleave, preload duratio : 192 ms
Title : Russian
Audio #2
ID : 2
Format : AC-3
Format/Info : Audio Coding 3
Mode extension : CM (complete main)
Format settings, Endianness : Big
Codec ID : 2000
Duration : 1h 54mn
Bit rate mode : Constant
Bit rate : 448 Kbps
Channel(s) : 6 channels
Channel positions : Front: L C R, Side: L R, LFE
Sampling rate : 48.0 KHz
Compression mode : Lossy
Stream size : 366 MiB (18%)
Alignment : Aligned on interleaves
Interleave, duration : 64 ms (1.53 video frames)
Interleave, preload duratio : 192 ms
Title : English

Скриншот c названием фильма

Скриншоты







Последний раз редактировалось: lotto (2015-07-01 18:08), всего редактировалось 3 раз(а)

Создавать темы 03-Июн-2015 11:11

[Профиль]  [ЛС] 

axeman

Стаж: 4 года 10 месяцев

Сообщений: 380

Симпатии: 50

Скрины из фильма, или с мира

Создавать темы 03-Июн-2015 11:52

[Профиль]  [ЛС] 

}{@ttabi4

Стаж: 6 лет 4 месяца

Сообщений: 139

Симпатии: 29

народ будте добрий-а? Скорост вапше нету.....1кбс

Создавать темы 07-Июн-2015 20:50

[Профиль]  [ЛС] 

lotto ®

Стаж: 7 лет 8 месяцев

Сообщений: 221

Симпатии: 409

Обновил до лицензии.

Создавать темы 01-Июл-2015 17:59

[Профиль]  [ЛС] 
Показать сообщения:    
Ответить на тему

Текущее время: 21-Сен 20:53

Часовой пояс: UTC + 5



Вы не можете начинать темы
Вы не можете отвечать на сообщения
Вы не можете редактировать свои сообщения
Вы не можете удалять свои сообщения
Вы не можете голосовать в опросах
Вы не можете прикреплять файлы к сообщениям
Вы не можете скачивать файлы