Землетрясение в Сан - Андреас / San Andreas Quake (Джон Баумгартнер) [2015, США / Asylum, фантастика, боевик, BDRip] [BDRip [H.264/720p] [VO]] (VO)

Ответить на тему
 

Сергей74 ®

Стаж: 2 года 5 месяцев

Сообщений: 211

Симпатии: 293

Землетрясение в Сан - Андреас / San Andreas Quake / BDRip [H.264/720p] [VO]
Страна: США / Asylum
Жанр: фантастика, боевик
Год выпуска: 2015
Продолжительность: 01:23:48
Перевод: Одноголосый закадровый
Cубтитры: нет
Режиссер: Джон Баумгартнер
В ролях: Джихей Цастлес, Блэйр Чандлер, Алекс Дил, Роберт Еванс, Шон Жерардо, Джастин Хоффмайстер, Дж. Кристофер, Тинаша Виллиамс, Кенни Сантьяго Марреро, Лэйн Таунсенд
Описание: Дискредитированный сейсмолог из Лос-Анджелеса, сообщает о надвигающейся катастрофе — 12.7 баллов землетрясении. Но ее никто не воспринимает всерьез. Теперь у нее есть несколько часов, чтобы спасти свою семью от катастрофы...
Рейтинг MPAA: R - Детям до 17 лет обязательно присутствие родителей
Дата мировой премьеры: 7 мая 2015

Доп. информация:


Качество видео: BDRip
Формат видео: MKV
Видео: MPEG-4 AVC/H.264, 1280x720 (16:9), 4 450 kbps, 23.976 fps, 0.201 b/px
Аудио: АС3, 2 ch, 192 kbps, 44 000 Hz - одноголосый закадровый - datynet
Аудио 2: DTS, 6 ch, 1152 kbps, 48 000 Hz - оригинальный

MediaInfo

General
Unique ID : 170879969728598528325181228197002064433 (0x808E48F9AAF8F4F79F795830838BB231)
Complete name : D:\San.Andreas.Quake.2015.L1.BDRip.720p.mkv
Format : Matroska
Format version : Version 4 / Version 2
File size : 3.39 GiB
Duration : 1h 23mn
Overall bit rate : 5 794 Kbps
Encoded date : UTC 2015-06-01 18:30:35
Writing application : mkvmerge v6.1.0 ('Old Devil') built on Mar 4 2013 09:10:42
Writing library : libebml v1.3.0 + libmatroska v1.4.0
Video
ID : 1
Format : AVC
Format/Info : Advanced Video Codec
Format profile : [email protected]
Format settings, CABAC : Yes
Format settings, ReFrames : 5 frames
Codec ID : V_MPEG4/ISO/AVC
Duration : 1h 23mn
Bit rate : 4 450 Kbps
Width : 1 280 pixels
Height : 720 pixels
Display aspect ratio : 16:9
Frame rate : 23.976 fps
Color space : YUV
Chroma subsampling : 4:2:0
Bit depth : 8 bits
Scan type : Progressive
Bits/(Pixel*Frame) : 0.201
Stream size : 2.54 GiB (75%)
Writing library : x264 core 146 r2538 121396c
Encoding settings : cabac=1 / ref=5 / deblock=1:0:0 / analyse=0x3:0x113 / me=umh / subme=7 / psy=1 / psy_rd=1.00:0.00 / mixed_ref=1 / me_range=16 / chroma_me=1 / trellis=1 / 8x8dct=1 / cqm=0 / deadzone=21,11 / fast_pskip=0 / chroma_qp_offset=-2 / threads=12 / lookahead_threads=2 / sliced_threads=0 / nr=0 / decimate=1 / interlaced=0 / bluray_compat=0 / constrained_intra=0 / bframes=3 / b_pyramid=2 / b_adapt=2 / b_bias=0 / direct=3 / weightb=1 / open_gop=0 / weightp=2 / keyint=250 / keyint_min=23 / scenecut=40 / intra_refresh=0 / rc_lookahead=50 / rc=2pass / mbtree=1 / bitrate=4450 / ratetol=1.0 / qcomp=0.60 / qpmin=0 / qpmax=69 / qpstep=4 / cplxblur=20.0 / qblur=0.5 / ip_ratio=1.40 / aq=1:1.00
Language : English
Default : Yes
Forced : No
Audio #1
ID : 2
Format : AC-3
Format/Info : Audio Coding 3
Mode extension : CM (complete main)
Format settings, Endianness : Big
Codec ID : A_AC3
Duration : 1h 23mn
Bit rate mode : Constant
Bit rate : 192 Kbps
Channel(s) : 2 channels
Channel positions : Front: L R
Sampling rate : 44.1 KHz
Bit depth : 16 bits
Compression mode : Lossy
Stream size : 115 MiB (3%)
Language : Russian
Default : Yes
Forced : No
Audio #2
ID : 3
Format : DTS
Format/Info : Digital Theater Systems
Codec ID : A_DTS
Duration : 1h 23mn
Bit rate mode : Constant
Bit rate : 1 152 Kbps
Channel(s) : 6 channels
Channel positions : Front: L C R, Side: L R, LFE
Sampling rate : 48.0 KHz
Bit depth : 24 bits
Compression mode : Lossy
Stream size : 690 MiB (20%)
Language : English
Default : No
Forced : No

Скриншот c названием фильма

Скриншоты






Последний раз редактировалось: Сергей74 (2015-06-04 11:14), всего редактировалось 2 раз(а)

Создавать темы 03-Июн-2015 12:22

[Профиль]  [ЛС] 

Каротажник

Стаж: 3 года 11 месяцев

Сообщений: 195

Симпатии: 211

Сергей74,
Доп. информация:
Хотите качать быстрее, включите ТЕРЕДО читайте Решение проблемы с NAT (Teredo IPv6) или скачать Teredo.zip
У кого не получалось и было client: disabled рекомендую скачать и установить фикс http://download.microsoft.com/download/2/E/C/2ECDDF...ftFixit50440.msi (1.1 мег) всего или скачать здесь (ниже прикрепил) и только затем в CMD
netsh interface ipv6 set teredo enterpriseclient teredo.tas-ix.net
netsh interface ipv6 set teredo client teredo.tas-ix.net
netsh int ipv6 show teredo
фикс - https://tas-ix.net/dl.php?id=84775
Оформите релиз по правилам

Создавать темы 03-Июн-2015 12:53

[Профиль]  [ЛС] 

Топик был перенесен из форума Фильмы за 2015 в форум HD-AVC
LUKA

Создавать темы 03-Июн-2015 12:53

 

Сергей74 ®

Стаж: 2 года 5 месяцев

Сообщений: 211

Симпатии: 293

aa

Создавать темы 03-Июн-2015 12:58

[Профиль]  [ЛС] 
Показать сообщения:    
Ответить на тему

Текущее время: 20-Сен 21:30

Часовой пояс: UTC + 5



Вы не можете начинать темы
Вы не можете отвечать на сообщения
Вы не можете редактировать свои сообщения
Вы не можете удалять свои сообщения
Вы не можете голосовать в опросах
Вы не можете прикреплять файлы к сообщениям
Вы не можете скачивать файлы