(Breaks, Funk, House, Big Beat, Electro) [CD] VA - The Fatboy Slim Collection (4CD) - 2015, FLAC (tracks+.cue), lossless

Ответить на тему
 

ScorpiuS ®

Стаж: 7 лет 3 месяца

Сообщений: 206

Симпатии: 122

VA / The Fatboy Slim Collection (4CD)- Жанр: Breaks, Funk, House, Big Beat, Electro
Носитель: CD
Страна-производитель диска (релиза): UK
Год издания: 2015
Издатель (лейбл): Sony Music Tv Comp
Номер по каталогу: 888750 78432
Аудиокодек: FLAC (*.flac)
Тип рипа: tracks+.cue
Битрейт аудио: lossless
Продолжительность: 5:15:32
Источник (релизер): what.cd
Наличие сканов в содержимом раздачи: нет-

CD1

01. Fatboy Slim - Right Here, Right Now (3:51)
02. The Chemical Brothers - Block Rockin' Beats (3:24)
03. Basement Jaxx - Where's Your Head At (3:58)
04. Wildchild - Renegade Master (Fatboy Slim Old Skool Mix) (5:59)
05. The Prodigy - Out Of Space (3:42)
06. Leftfield - Phat Planet (5:21)
07. Gorillaz - 19-2000 (Soulchild Remix) (3:22)
08. Groove Armada - I See You Baby (Fatboy Slim Radio Edit) (feat. Gram'ma Funk) (4:02)
09. Mint Royale - Sexiest Man In Jamaica (3:25)
10. X Press 2 - Lazy (Fatboy Slim Remix) (feat. David Byrne) (6:41)
11. Armand Van Helden - NYC Beat (3:10)
12. Underworld - Cowgirl (8:23)
13. Liquid - Sweet Harmony (4:21)
14. Justice Vs Simian - We Are Your Friends (2:41)
15. Air - Kelly Watch The Stars (Moog Cookbook Remix) (5:39)
16. Cassius - 1999 (3:32)
17. David Morales Presents The Face - Needin' U (3:47)
18. Frankie Knuckles - Your Love (feat. Jamie Principle) (3:45)

CD2

01. Beats International Vs. Sideburn & Viktor Kaman - Dub Be Good To Me (Fatboy Slim Re-Edit) (3:43)
02. Pizzaman - Trippin On Sunshine (6:51)
03. Ruffneck - Everybody Be Somebody (feat. Yavahn) (3:41)
04. Beastie Boys - Body Movin' (Fatboy Slim Remix) (5:32)
05. Jungle Brothers - I'll House You (3:42)
06. Stetsasonic - Talkin' All That Jazz (Dim's Radio Edit) (4:22)
07. Switch - A Bit Patchy (2:46)
08. Raven Maize - The Real Life (Fatboy Slim Remix Edit) (4:30)
09. Layo & Bushwacka! - Love Story (5:13)
10. Static Revenger - Happy People (3:58)
11. Scanty Sandwich - Because Of You (2:58)
12. Mighty Dub Katz - Magic Carpet Ride (3:09)
13. Helicopter - On Ya Way (6:04)
14. Atlantic Ocean - Waterfall (Original Netherlands Mix 7' Radio Edit) (3:21)
15. Mory Kanté - Yeke Yeke (Hardfloor Edit) (3:55)
16. Heller & Farley Project - Ultra Flava (Original Flava) (3:53)
17. Jaydee - Plastic Dreams (3:19)
18. De'Lacy - Hideaway (Deep Dish Radio Edit) (3:26)
19. Clivilles & Cole - A Deeper Love (A Deeper Love Mix) (4:14)

CD3

01. Fatboy Slim & Riva Starr - Eat Sleep Rave Repeat (Calvin Harris Edit) (feat. Beardyman) (2:48)
02. Chuckie & LMFAO - Let The Bass Kick In Miami Bitch (2:44)
03. Sidney Samson - Riverside (Let's Go!) (feat. Wizard Sleeve) (2:35)
04. Fedde Le Grand - Put Your Hands Up For Detroit (2:23)
05. Benny Benassi Presents The Biz - Satisfaction (3:11)
06. Tim Deluxe - It Just Won't Do (feat. Sam Obernik) (3:19)
07. Major Lazer - Pon De Floor (feat. VYBZ Kartel & Afrojack) (3:33)
08. Showtek - Booyah (feat. We Are Loud! & Sonny Wilson) (3:36)
09. Diddy Dirty Money - Coming Home (Dirty South Vocal Remix) (feat. Skylar Grey) (6:57)
10. Chocolate Puma - Step Back (feat. Kris Kiss) (5:42)
11. Mason - Exceeder (2:55)
12. Zombie Nation - Kernkraft 400 (3:28)
13. Camisra - Let Me Show You (3:23)
14. Da Hool - Meet Her At The Love Parade (Nalin & Kane Mix) (5:33)
15. Azzido Da Bass - Dooms Night (Timo Maas Radio Edit) (3:45)
16. Cut and Paste - Forget It (3:06)
17. Aphrodite & Micky Finn - Drop Top Caddy (3:39)
18. Jagga - Na Na Na (Acido Latino Mix) (5:36)
19. Ninetoes - Finder (The Path) (3:27)
20. Fatboy Slim vs Jerome Robins - Uptown Funk (feat. Idris Elba) (4:44)
21. John Paul Young - Love Is In The Air (3:22)

CD4

01. Fatboy Slim - Fatboy Slim DJ Mix (1:18:07)
-

Лог создания рипа

Exact Audio Copy V1.0 beta 6 from 9. April 2015
EAC extraction logfile from 30. May 2015, 18:13
Various Artists / The Fatboy Slim Collection
Used drive : PLDS DVD-RW DS8A8SH Adapter: 1 ID: 0
Read mode : Secure
Utilize accurate stream : Yes
Defeat audio cache : Yes
Make use of C2 pointers : No
Read offset correction : 6
Overread into Lead-In and Lead-Out : No
Fill up missing offset samples with silence : Yes
Delete leading and trailing silent blocks : No
Null samples used in CRC calculations : Yes
Used interface : Native Win32 interface for Win NT & 2000
Gap handling : Appended to previous track
Used output format : User Defined Encoder
Selected bitrate : 1024 kBit/s
Quality : High
Add ID3 tag : No
Command line compressor : C:\Program Files (x86)\Exact Audio Copy\Flac\flac.exe
Additional command line options : -8 -V -T "ARTIST=%artist%" -T "TITLE=%title%" -T "ALBUM=%albumtitle%" -T "DATE=%year%" -T "TRACKNUMBER=%tracknr2%" -T "GENRE=%genre%" -T "PERFORMER=%albuminterpret%" -T "COMPOSER=%composer%" %haslyrics%--tag-from-file=LYRICS="%lyricsfile%"%haslyrics% -T "ALBUMARTIST=%albumartist%" -T "DISCNUMBER=%cdnumber%" -T "TOTALDISCS=%totalcds%" -T "TOTALTRACKS=%numtracks%" -T "COMMENT=%comment%" %source% -o %dest%
TOC of the extracted CD
Track | Start | Length | Start sector | End sector
---------------------------------------------------------
1 | 0:00.00 | 3:50.60 | 0 | 17309
2 | 3:50.60 | 3:24.23 | 17310 | 32632
3 | 7:15.08 | 3:57.55 | 32633 | 50462
4 | 11:12.63 | 5:58.62 | 50463 | 77374
5 | 17:11.50 | 3:42.24 | 77375 | 94048
6 | 20:53.74 | 5:20.51 | 94049 | 118099
7 | 26:14.50 | 3:22.03 | 118100 | 133252
8 | 29:36.53 | 4:01.52 | 133253 | 151379
9 | 33:38.30 | 3:24.50 | 151380 | 166729
10 | 37:03.05 | 6:41.09 | 166730 | 196813
11 | 43:44.14 | 3:09.66 | 196814 | 211054
12 | 46:54.05 | 8:23.11 | 211055 | 248790
13 | 55:17.16 | 4:20.64 | 248791 | 268354
14 | 59:38.05 | 2:40.61 | 268355 | 280415
15 | 62:18.66 | 5:38.51 | 280416 | 305816
16 | 67:57.42 | 3:32.07 | 305817 | 321723
17 | 71:29.49 | 3:47.00 | 321724 | 338748
18 | 75:16.49 | 3:45.23 | 338749 | 355646
Track 1
Filename D:\CDs\Various Artists - The Fatboy Slim Collection (2015) [FLAC]\Disc 1\01 - Fatboy Slim - Right Here, Right Now.wav
Pre-gap length 0:00:02.00
Peak level 98.8 %
Extraction speed 2.4 X
Track quality 100.0 %
Test CRC 3B49278B
Copy CRC 3B49278B
Track not present in AccurateRip database
Copy OK
Track 2
Filename D:\CDs\Various Artists - The Fatboy Slim Collection (2015) [FLAC]\Disc 1\02 - The Chemical Brothers - Block Rockin' Beats.wav
Peak level 91.9 %
Extraction speed 2.4 X
Track quality 100.0 %
Test CRC FEB07CF5
Copy CRC FEB07CF5
Track not present in AccurateRip database
Copy OK
Track 3
Filename D:\CDs\Various Artists - The Fatboy Slim Collection (2015) [FLAC]\Disc 1\03 - Basement Jaxx - Where's Your Head At.wav
Peak level 98.8 %
Extraction speed 2.3 X
Track quality 99.9 %
Test CRC 7C21F069
Copy CRC 7C21F069
Track not present in AccurateRip database
Copy OK
Track 4
Filename D:\CDs\Various Artists - The Fatboy Slim Collection (2015) [FLAC]\Disc 1\04 - Wildchild - Renegade Master (Fatboy Slim Old Skool Mix).wav
Peak level 86.1 %
Extraction speed 3.1 X
Track quality 100.0 %
Test CRC A4BC309D
Copy CRC A4BC309D
Track not present in AccurateRip database
Copy OK
Track 5
Filename D:\CDs\Various Artists - The Fatboy Slim Collection (2015) [FLAC]\Disc 1\05 - The Prodigy - Out Of Space.wav
Peak level 98.8 %
Extraction speed 3.0 X
Track quality 100.0 %
Test CRC 177CAF34
Copy CRC 177CAF34
Track not present in AccurateRip database
Copy OK
Track 6
Filename D:\CDs\Various Artists - The Fatboy Slim Collection (2015) [FLAC]\Disc 1\06 - Leftfield - Phat Planet.wav
Peak level 98.8 %
Extraction speed 2.9 X
Track quality 99.9 %
Test CRC A6A31439
Copy CRC A6A31439
Track not present in AccurateRip database
Copy OK
Track 7
Filename D:\CDs\Various Artists - The Fatboy Slim Collection (2015) [FLAC]\Disc 1\07 - Gorillaz - 19-2000 (Soulchild Remix).wav
Peak level 79.0 %
Extraction speed 3.4 X
Track quality 100.0 %
Test CRC 189143F7
Copy CRC 189143F7
Track not present in AccurateRip database
Copy OK
Track 8
Filename D:\CDs\Various Artists - The Fatboy Slim Collection (2015) [FLAC]\Disc 1\08 - Groove Armada - I See You Baby (Fatboy Slim Radio Edit) (feat. Gram'ma Funk).wav
Peak level 82.8 %
Extraction speed 3.0 X
Track quality 99.9 %
Test CRC CDE98541
Copy CRC CDE98541
Track not present in AccurateRip database
Copy OK
Track 9
Filename D:\CDs\Various Artists - The Fatboy Slim Collection (2015) [FLAC]\Disc 1\09 - Mint Royale - Sexiest Man In Jamaica.wav
Peak level 98.8 %
Extraction speed 3.6 X
Track quality 100.0 %
Test CRC 937D1C34
Copy CRC 937D1C34
Track not present in AccurateRip database
Copy OK
Track 10
Filename D:\CDs\Various Artists - The Fatboy Slim Collection (2015) [FLAC]\Disc 1\10 - X Press 2 - Lazy (Fatboy Slim Remix) (feat. David Byrne).wav
Peak level 81.0 %
Extraction speed 4.1 X
Track quality 100.0 %
Test CRC A860C0FC
Copy CRC A860C0FC
Track not present in AccurateRip database
Copy OK
Track 11
Filename D:\CDs\Various Artists - The Fatboy Slim Collection (2015) [FLAC]\Disc 1\11 - Armand Van Helden - NYC Beat.wav
Peak level 83.6 %
Extraction speed 3.1 X
Track quality 99.9 %
Test CRC 338387DD
Copy CRC 338387DD
Track not present in AccurateRip database
Copy OK
Track 12
Filename D:\CDs\Various Artists - The Fatboy Slim Collection (2015) [FLAC]\Disc 1\12 - Underworld - Cowgirl.wav
Peak level 98.8 %
Extraction speed 4.5 X
Track quality 100.0 %
Test CRC 4BBD2B06
Copy CRC 4BBD2B06
Track not present in AccurateRip database
Copy OK
Track 13
Filename D:\CDs\Various Artists - The Fatboy Slim Collection (2015) [FLAC]\Disc 1\13 - Liquid - Sweet Harmony.wav
Peak level 98.8 %
Extraction speed 4.4 X
Track quality 100.0 %
Test CRC 8183B630
Copy CRC 8183B630
Track not present in AccurateRip database
Copy OK
Track 14
Filename D:\CDs\Various Artists - The Fatboy Slim Collection (2015) [FLAC]\Disc 1\14 - Justice Vs Simian - We Are Your Friends.wav
Peak level 98.8 %
Extraction speed 4.0 X
Track quality 100.0 %
Test CRC FD28F33A
Copy CRC FD28F33A
Track not present in AccurateRip database
Copy OK
Track 15
Filename D:\CDs\Various Artists - The Fatboy Slim Collection (2015) [FLAC]\Disc 1\15 - Air - Kelly Watch The Stars (Moog Cookbook Remix).wav
Peak level 98.8 %
Extraction speed 4.8 X
Track quality 100.0 %
Test CRC 4980ABD2
Copy CRC 4980ABD2
Track not present in AccurateRip database
Copy OK
Track 16
Filename D:\CDs\Various Artists - The Fatboy Slim Collection (2015) [FLAC]\Disc 1\16 - Cassius - 1999.wav
Peak level 98.8 %
Extraction speed 4.4 X
Track quality 100.0 %
Test CRC 7D9D309A
Copy CRC 7D9D309A
Track not present in AccurateRip database
Copy OK
Track 17
Filename D:\CDs\Various Artists - The Fatboy Slim Collection (2015) [FLAC]\Disc 1\17 - David Morales Presents The Face - Needin' U.wav
Peak level 98.8 %
Extraction speed 4.5 X
Track quality 100.0 %
Test CRC FFDBAE34
Copy CRC FFDBAE34
Track not present in AccurateRip database
Copy OK
Track 18
Filename D:\CDs\Various Artists - The Fatboy Slim Collection (2015) [FLAC]\Disc 1\18 - Frankie Knuckles - Your Love (feat. Jamie Principle).wav
Peak level 93.6 %
Extraction speed 4.7 X
Track quality 100.0 %
Test CRC 0471B814
Copy CRC 0471B814
Track not present in AccurateRip database
Copy OK
None of the tracks are present in the AccurateRip database
No errors occurred
End of status report
---- CUETools DB Plugin V2.1.6
[CTDB TOCID: Jr3YYzla8p1b0zHDuxwO3yqMviA-] found
Submit result: already submitted
Track | CTDB Status
1 | (2/2) Accurately ripped
2 | (2/2) Accurately ripped
3 | (2/2) Accurately ripped
4 | (2/2) Accurately ripped
5 | (2/2) Accurately ripped
6 | (2/2) Accurately ripped
7 | (2/2) Accurately ripped
8 | (2/2) Accurately ripped
9 | (2/2) Accurately ripped
10 | (2/2) Accurately ripped
11 | (2/2) Accurately ripped
12 | (2/2) Accurately ripped
13 | (2/2) Accurately ripped
14 | (2/2) Accurately ripped
15 | (2/2) Accurately ripped
16 | (2/2) Accurately ripped
17 | (2/2) Accurately ripped
18 | (2/2) Accurately ripped
==== Log checksum 5E772D4A6BA4A1541760A1925157F05486AD7F9AD5D51532840DF1C4F4C0CFC1 ====
Exact Audio Copy V1.0 beta 6 from 9. April 2015
EAC extraction logfile from 30. May 2015, 19:30
Various Artists / The Fatboy Slim Collection
Used drive : PLDS DVD-RW DS8A8SH Adapter: 1 ID: 0
Read mode : Secure
Utilize accurate stream : Yes
Defeat audio cache : Yes
Make use of C2 pointers : No
Read offset correction : 6
Overread into Lead-In and Lead-Out : No
Fill up missing offset samples with silence : Yes
Delete leading and trailing silent blocks : No
Null samples used in CRC calculations : Yes
Used interface : Native Win32 interface for Win NT & 2000
Gap handling : Appended to previous track
Used output format : User Defined Encoder
Selected bitrate : 1024 kBit/s
Quality : High
Add ID3 tag : No
Command line compressor : C:\Program Files (x86)\Exact Audio Copy\Flac\flac.exe
Additional command line options : -8 -V -T "ARTIST=%artist%" -T "TITLE=%title%" -T "ALBUM=%albumtitle%" -T "DATE=%year%" -T "TRACKNUMBER=%tracknr2%" -T "GENRE=%genre%" -T "PERFORMER=%albuminterpret%" -T "COMPOSER=%composer%" %haslyrics%--tag-from-file=LYRICS="%lyricsfile%"%haslyrics% -T "ALBUMARTIST=%albumartist%" -T "DISCNUMBER=%cdnumber%" -T "TOTALDISCS=%totalcds%" -T "TOTALTRACKS=%numtracks%" -T "COMMENT=%comment%" %source% -o %dest%
TOC of the extracted CD
Track | Start | Length | Start sector | End sector
---------------------------------------------------------
1 | 0:00.00 | 3:42.74 | 0 | 16723
2 | 3:42.74 | 6:51.11 | 16724 | 47559
3 | 10:34.10 | 3:41.31 | 47560 | 64165
4 | 14:15.41 | 5:31.63 | 64166 | 89053
5 | 19:47.29 | 3:41.44 | 89054 | 105672
6 | 23:28.73 | 4:22.29 | 105673 | 125351
7 | 27:51.27 | 2:46.09 | 125352 | 137810
8 | 30:37.36 | 4:30.09 | 137811 | 158069
9 | 35:07.45 | 5:13.10 | 158070 | 181554
10 | 40:20.55 | 3:58.17 | 181555 | 199421
11 | 44:18.72 | 2:57.69 | 199422 | 212765
12 | 47:16.66 | 3:09.12 | 212766 | 226952
13 | 50:26.03 | 6:04.07 | 226953 | 254259
14 | 56:30.10 | 3:21.30 | 254260 | 269364
15 | 59:51.40 | 3:55.25 | 269365 | 287014
16 | 63:46.65 | 3:52.50 | 287015 | 304464
17 | 67:39.40 | 3:19.20 | 304465 | 319409
18 | 70:58.60 | 3:25.61 | 319410 | 334845
19 | 74:24.46 | 4:14.33 | 334846 | 353928
Track 1
Filename D:\CDs\Various Artists - The Fatboy Slim Collection (2015) [FLAC]\Disc 2\01 - Beats International Vs. Sideburn & Viktor Kaman - Dub Be Good To Me (Fatboy Slim Re-Edit).wav
Pre-gap length 0:00:02.00
Peak level 98.8 %
Extraction speed 2.3 X
Track quality 100.0 %
Test CRC 685E565F
Copy CRC 685E565F
Track not present in AccurateRip database
Copy OK
Track 2
Filename D:\CDs\Various Artists - The Fatboy Slim Collection (2015) [FLAC]\Disc 2\02 - Pizzaman - Trippin On Sunshine.wav
Peak level 98.8 %
Extraction speed 2.8 X
Track quality 100.0 %
Test CRC 2043228B
Copy CRC 2043228B
Track not present in AccurateRip database
Copy OK
Track 3
Filename D:\CDs\Various Artists - The Fatboy Slim Collection (2015) [FLAC]\Disc 2\03 - Ruffneck - Everybody Be Somebody (feat. Yavahn).wav
Peak level 98.8 %
Extraction speed 2.4 X
Track quality 99.9 %
Test CRC 198575B9
Copy CRC 198575B9
Track not present in AccurateRip database
Copy OK
Track 4
Filename D:\CDs\Various Artists - The Fatboy Slim Collection (2015) [FLAC]\Disc 2\04 - Beastie Boys - Body Movin' (Fatboy Slim Remix).wav
Peak level 98.8 %
Extraction speed 3.2 X
Track quality 100.0 %
Test CRC D912CF63
Copy CRC D912CF63
Track not present in AccurateRip database
Copy OK
Track 5
Filename D:\CDs\Various Artists - The Fatboy Slim Collection (2015) [FLAC]\Disc 2\05 - Jungle Brothers - I'll House You.wav
Peak level 94.5 %
Extraction speed 3.1 X
Track quality 100.0 %
Test CRC 47332176
Copy CRC 47332176
Track not present in AccurateRip database
Copy OK
Track 6
Filename D:\CDs\Various Artists - The Fatboy Slim Collection (2015) [FLAC]\Disc 2\06 - Stetsasonic - Talkin' All That Jazz (Dim's Radio Edit).wav
Peak level 88.8 %
Extraction speed 3.4 X
Track quality 100.0 %
Test CRC B62EF271
Copy CRC B62EF271
Track not present in AccurateRip database
Copy OK
Track 7
Filename D:\CDs\Various Artists - The Fatboy Slim Collection (2015) [FLAC]\Disc 2\07 - Switch - A Bit Patchy.wav
Peak level 93.8 %
Extraction speed 3.4 X
Track quality 100.0 %
Test CRC BF207730
Copy CRC BF207730
Track not present in AccurateRip database
Copy OK
Track 8
Filename D:\CDs\Various Artists - The Fatboy Slim Collection (2015) [FLAC]\Disc 2\08 - Raven Maize - The Real Life (Fatboy Slim Remix Edit).wav
Peak level 97.8 %
Extraction speed 3.7 X
Track quality 100.0 %
Test CRC 7D5EAFE1
Copy CRC 7D5EAFE1
Track not present in AccurateRip database
Copy OK
Track 9
Filename D:\CDs\Various Artists - The Fatboy Slim Collection (2015) [FLAC]\Disc 2\09 - Layo & Bushwacka! - Love Story.wav
Peak level 98.8 %
Extraction speed 3.9 X
Track quality 100.0 %
Test CRC CDCC024A
Copy CRC CDCC024A
Track not present in AccurateRip database
Copy OK
Track 10
Filename D:\CDs\Various Artists - The Fatboy Slim Collection (2015) [FLAC]\Disc 2\10 - Static Revenger - Happy People.wav
Peak level 69.9 %
Extraction speed 3.9 X
Track quality 100.0 %
Test CRC 74DC1682
Copy CRC 74DC1682
Track not present in AccurateRip database
Copy OK
Track 11
Filename D:\CDs\Various Artists - The Fatboy Slim Collection (2015) [FLAC]\Disc 2\11 - Scanty Sandwich - Because Of You.wav
Peak level 89.6 %
Extraction speed 3.3 X
Track quality 99.9 %
Test CRC AE186373
Copy CRC AE186373
Track not present in AccurateRip database
Copy OK
Track 12
Filename D:\CDs\Various Artists - The Fatboy Slim Collection (2015) [FLAC]\Disc 2\12 - Mighty Dub Katz - Magic Carpet Ride.wav
Peak level 98.5 %
Extraction speed 4.2 X
Track quality 100.0 %
Test CRC 47D402FE
Copy CRC 47D402FE
Track not present in AccurateRip database
Copy OK
Track 13
Filename D:\CDs\Various Artists - The Fatboy Slim Collection (2015) [FLAC]\Disc 2\13 - Helicopter - On Ya Way.wav
Peak level 98.8 %
Extraction speed 4.8 X
Track quality 100.0 %
Test CRC 39C9FD55
Copy CRC 39C9FD55
Track not present in AccurateRip database
Copy OK
Track 14
Filename D:\CDs\Various Artists - The Fatboy Slim Collection (2015) [FLAC]\Disc 2\14 - Atlantic Ocean - Waterfall (Original Netherlands Mix 7'' Radio Edit).wav
Peak level 98.8 %
Extraction speed 4.6 X
Track quality 100.0 %
Test CRC 618B326E
Copy CRC 618B326E
Track not present in AccurateRip database
Copy OK
Track 15
Filename D:\CDs\Various Artists - The Fatboy Slim Collection (2015) [FLAC]\Disc 2\15 - Mory Kanté - Yeke Yeke (Hardfloor Edit).wav
Peak level 95.4 %
Extraction speed 4.8 X
Track quality 100.0 %
Test CRC CD2EFC4B
Copy CRC CD2EFC4B
Track not present in AccurateRip database
Copy OK
Track 16
Filename D:\CDs\Various Artists - The Fatboy Slim Collection (2015) [FLAC]\Disc 2\16 - Heller & Farley Project - Ultra Flava (Original Flava).wav
Peak level 98.8 %
Extraction speed 4.9 X
Track quality 100.0 %
Test CRC 734FCE3C
Copy CRC 734FCE3C
Track not present in AccurateRip database
Copy OK
Track 17
Filename D:\CDs\Various Artists - The Fatboy Slim Collection (2015) [FLAC]\Disc 2\17 - Jaydee - Plastic Dreams.wav
Peak level 98.8 %
Extraction speed 4.9 X
Track quality 100.0 %
Test CRC 200FEBBF
Copy CRC 200FEBBF
Track not present in AccurateRip database
Copy OK
Track 18
Filename D:\CDs\Various Artists - The Fatboy Slim Collection (2015) [FLAC]\Disc 2\18 - De'Lacy - Hideaway (Deep Dish Radio Edit).wav
Peak level 98.8 %
Extraction speed 4.1 X
Track quality 99.9 %
Test CRC EF362894
Copy CRC EF362894
Track not present in AccurateRip database
Copy OK
Track 19
Filename D:\CDs\Various Artists - The Fatboy Slim Collection (2015) [FLAC]\Disc 2\19 - Clivilles & Cole - A Deeper Love (A Deeper Love Mix).wav
Peak level 98.8 %
Extraction speed 5.2 X
Track quality 100.0 %
Test CRC 7471EFAD
Copy CRC 7471EFAD
Track not present in AccurateRip database
Copy OK
None of the tracks are present in the AccurateRip database
No errors occurred
End of status report
---- CUETools DB Plugin V2.1.6
[CTDB TOCID: sR_FfHqGAja1dl8uaBVTlt_Y37E-] found
Submit result: sR_FfHqGAja1dl8uaBVTlt_Y37E- has been confirmed
Track | CTDB Status
1 | (1/1) Accurately ripped
2 | (1/1) Accurately ripped
3 | (1/1) Accurately ripped
4 | (1/1) Accurately ripped
5 | (1/1) Accurately ripped
6 | (1/1) Accurately ripped
7 | (1/1) Accurately ripped
8 | (1/1) Accurately ripped
9 | (1/1) Accurately ripped
10 | (1/1) Accurately ripped
11 | (1/1) Accurately ripped
12 | (1/1) Accurately ripped
13 | (1/1) Accurately ripped
14 | (1/1) Accurately ripped
15 | (1/1) Accurately ripped
16 | (1/1) Accurately ripped
17 | (1/1) Accurately ripped
18 | (1/1) Accurately ripped
19 | (1/1) Accurately ripped
==== Log checksum 56EC69C5814684C29EB677C63674595A6AD55E851425AB15D3CAF0AE7CA9E21D ====
Exact Audio Copy V1.0 beta 6 from 9. April 2015
EAC extraction logfile from 30. May 2015, 20:23
Various Artists / The Fatboy Slim Collection
Used drive : PLDS DVD-RW DS8A8SH Adapter: 1 ID: 0
Read mode : Secure
Utilize accurate stream : Yes
Defeat audio cache : Yes
Make use of C2 pointers : No
Read offset correction : 6
Overread into Lead-In and Lead-Out : No
Fill up missing offset samples with silence : Yes
Delete leading and trailing silent blocks : No
Null samples used in CRC calculations : Yes
Used interface : Native Win32 interface for Win NT & 2000
Gap handling : Appended to previous track
Used output format : User Defined Encoder
Selected bitrate : 1024 kBit/s
Quality : High
Add ID3 tag : No
Command line compressor : C:\Program Files (x86)\Exact Audio Copy\Flac\flac.exe
Additional command line options : -8 -V -T "ARTIST=%artist%" -T "TITLE=%title%" -T "ALBUM=%albumtitle%" -T "DATE=%year%" -T "TRACKNUMBER=%tracknr2%" -T "GENRE=%genre%" -T "PERFORMER=%albuminterpret%" -T "COMPOSER=%composer%" %haslyrics%--tag-from-file=LYRICS="%lyricsfile%"%haslyrics% -T "ALBUMARTIST=%albumartist%" -T "DISCNUMBER=%cdnumber%" -T "TOTALDISCS=%totalcds%" -T "TOTALTRACKS=%numtracks%" -T "COMMENT=%comment%" %source% -o %dest%
TOC of the extracted CD
Track | Start | Length | Start sector | End sector
---------------------------------------------------------
1 | 0:00.00 | 2:48.27 | 0 | 12626
2 | 2:48.27 | 2:43.71 | 12627 | 24922
3 | 5:32.23 | 2:34.67 | 24923 | 36539
4 | 8:07.15 | 2:22.65 | 36540 | 47254
5 | 10:30.05 | 3:11.15 | 47255 | 61594
6 | 13:41.20 | 3:19.11 | 61595 | 76530
7 | 17:00.31 | 3:33.24 | 76531 | 92529
8 | 20:33.55 | 3:36.02 | 92530 | 108731
9 | 24:09.57 | 6:56.60 | 108732 | 139991
10 | 31:06.42 | 5:41.43 | 139992 | 165609
11 | 36:48.10 | 2:55.31 | 165610 | 178765
12 | 39:43.41 | 3:28.22 | 178766 | 194387
13 | 43:11.63 | 3:22.54 | 194388 | 209591
14 | 46:34.42 | 5:32.63 | 209592 | 234554
15 | 52:07.30 | 3:45.02 | 234555 | 251431
16 | 55:52.32 | 3:05.51 | 251432 | 265357
17 | 58:58.08 | 3:39.12 | 265358 | 281794
18 | 62:37.20 | 5:35.40 | 281795 | 306959
19 | 68:12.60 | 3:26.45 | 306960 | 322454
20 | 71:39.30 | 4:43.40 | 322455 | 343719
21 | 76:22.70 | 3:21.38 | 343720 | 358832
Track 1
Filename D:\CDs\Various Artists - The Fatboy Slim Collection (2015) [FLAC]\Disc 3\01 - Fatboy Slim & Riva Starr - Eat Sleep Rave Repeat (Calvin Harris Edit) (feat. Beardyman).wav
Pre-gap length 0:00:02.00
Peak level 76.1 %
Extraction speed 2.3 X
Track quality 100.0 %
Test CRC 46B6A247
Copy CRC 46B6A247
Track not present in AccurateRip database
Copy OK
Track 2
Filename D:\CDs\Various Artists - The Fatboy Slim Collection (2015) [FLAC]\Disc 3\02 - Chuckie & LMFAO - Let The Bass Kick In Miami Bitch.wav
Peak level 94.3 %
Extraction speed 2.4 X
Track quality 100.0 %
Test CRC E437294B
Copy CRC E437294B
Track not present in AccurateRip database
Copy OK
Track 3
Filename D:\CDs\Various Artists - The Fatboy Slim Collection (2015) [FLAC]\Disc 3\03 - Sidney Samson - Riverside (Let's Go!) (feat. Wizard Sleeve).wav
Peak level 98.8 %
Extraction speed 2.5 X
Track quality 100.0 %
Test CRC 831D627F
Copy CRC 831D627F
Track not present in AccurateRip database
Copy OK
Track 4
Filename D:\CDs\Various Artists - The Fatboy Slim Collection (2015) [FLAC]\Disc 3\04 - Fedde Le Grand - Put Your Hands Up For Detroit.wav
Peak level 98.8 %
Extraction speed 2.6 X
Track quality 100.0 %
Test CRC 4C3BEBBF
Copy CRC 4C3BEBBF
Track not present in AccurateRip database
Copy OK
Track 5
Filename D:\CDs\Various Artists - The Fatboy Slim Collection (2015) [FLAC]\Disc 3\05 - Benny Benassi Presents The Biz - Satisfaction.wav
Peak level 83.3 %
Extraction speed 2.4 X
Track quality 99.9 %
Test CRC A1138079
Copy CRC A1138079
Track not present in AccurateRip database
Copy OK
Track 6
Filename D:\CDs\Various Artists - The Fatboy Slim Collection (2015) [FLAC]\Disc 3\06 - Tim Deluxe - It Just Won't Do (feat. Sam Obernik).wav
Peak level 98.8 %
Extraction speed 3.1 X
Track quality 100.0 %
Test CRC ECB9DF31
Copy CRC ECB9DF31
Track not present in AccurateRip database
Copy OK
Track 7
Filename D:\CDs\Various Artists - The Fatboy Slim Collection (2015) [FLAC]\Disc 3\07 - Major Lazer - Pon De Floor (feat. VYBZ Kartel & Afrojack).wav
Peak level 98.0 %
Extraction speed 3.2 X
Track quality 100.0 %
Test CRC F31BC9E6
Copy CRC F31BC9E6
Track not present in AccurateRip database
Copy OK
Track 8
Filename D:\CDs\Various Artists - The Fatboy Slim Collection (2015) [FLAC]\Disc 3\08 - Showtek - Booyah (feat. We Are Loud! & Sonny Wilson).wav
Peak level 88.7 %
Extraction speed 3.4 X
Track quality 100.0 %
Test CRC AF15CD17
Copy CRC AF15CD17
Track not present in AccurateRip database
Copy OK
Track 9
Filename D:\CDs\Various Artists - The Fatboy Slim Collection (2015) [FLAC]\Disc 3\09 - Diddy Dirty Money - Coming Home (Dirty South Vocal Remix) (feat. Skylar Grey).wav
Peak level 98.8 %
Extraction speed 3.8 X
Track quality 100.0 %
Test CRC DAE8CF51
Copy CRC DAE8CF51
Track not present in AccurateRip database
Copy OK
Track 10
Filename D:\CDs\Various Artists - The Fatboy Slim Collection (2015) [FLAC]\Disc 3\10 - Chocolate Puma - Step Back (feat. Kris Kiss).wav
Peak level 91.3 %
Extraction speed 4.0 X
Track quality 100.0 %
Test CRC E565E360
Copy CRC E565E360
Track not present in AccurateRip database
Copy OK
Track 11
Filename D:\CDs\Various Artists - The Fatboy Slim Collection (2015) [FLAC]\Disc 3\11 - Mason - Exceeder.wav
Peak level 98.8 %
Extraction speed 2.5 X
Track quality 99.8 %
Test CRC 1965C5A9
Copy CRC 1965C5A9
Track not present in AccurateRip database
Copy OK
Track 12
Filename D:\CDs\Various Artists - The Fatboy Slim Collection (2015) [FLAC]\Disc 3\12 - Zombie Nation - Kernkraft 400.wav
Peak level 98.8 %
Extraction speed 4.1 X
Track quality 100.0 %
Test CRC 6D0AD178
Copy CRC 6D0AD178
Track not present in AccurateRip database
Copy OK
Track 13
Filename D:\CDs\Various Artists - The Fatboy Slim Collection (2015) [FLAC]\Disc 3\13 - Camisra - Let Me Show You.wav
Peak level 98.8 %
Extraction speed 4.2 X
Track quality 100.0 %
Test CRC 017E62FA
Copy CRC 017E62FA
Track not present in AccurateRip database
Copy OK
Track 14
Filename D:\CDs\Various Artists - The Fatboy Slim Collection (2015) [FLAC]\Disc 3\14 - Da Hool - Meet Her At The Love Parade (Nalin & Kane Mix).wav
Peak level 98.8 %
Extraction speed 4.6 X
Track quality 100.0 %
Test CRC 4006FACF
Copy CRC 4006FACF
Track not present in AccurateRip database
Copy OK
Track 15
Filename D:\CDs\Various Artists - The Fatboy Slim Collection (2015) [FLAC]\Disc 3\15 - Azzido Da Bass - Dooms Night (Timo Maas Radio Edit).wav
Peak level 98.8 %
Extraction speed 4.5 X
Track quality 100.0 %
Test CRC 04A9CF5F
Copy CRC 04A9CF5F
Track not present in AccurateRip database
Copy OK
Track 16
Filename D:\CDs\Various Artists - The Fatboy Slim Collection (2015) [FLAC]\Disc 3\16 - Cut and Paste - Forget It.wav
Peak level 98.8 %
Extraction speed 4.5 X
Track quality 100.0 %
Test CRC 92B6E1C0
Copy CRC 92B6E1C0
Track not present in AccurateRip database
Copy OK
Track 17
Filename D:\CDs\Various Artists - The Fatboy Slim Collection (2015) [FLAC]\Disc 3\17 - Aphrodite & Micky Finn - Drop Top Caddy.wav
Peak level 84.8 %
Extraction speed 4.7 X
Track quality 100.0 %
Test CRC 8882EB88
Copy CRC 8882EB88
Track not present in AccurateRip database
Copy OK
Track 18
Filename D:\CDs\Various Artists - The Fatboy Slim Collection (2015) [FLAC]\Disc 3\18 - Jagga - Na Na Na (Acido Latino Mix).wav
Peak level 98.8 %
Extraction speed 5.1 X
Track quality 100.0 %
Test CRC D0DC3E3A
Copy CRC D0DC3E3A
Track not present in AccurateRip database
Copy OK
Track 19
Filename D:\CDs\Various Artists - The Fatboy Slim Collection (2015) [FLAC]\Disc 3\19 - Ninetoes - Finder (The Path).wav
Peak level 97.9 %
Extraction speed 4.9 X
Track quality 100.0 %
Test CRC F2FB3C2C
Copy CRC F2FB3C2C
Track not present in AccurateRip database
Copy OK
Track 20
Filename D:\CDs\Various Artists - The Fatboy Slim Collection (2015) [FLAC]\Disc 3\20 - Fatboy Slim vs Jerome Robins - Uptown Funk (feat. Idris Elba).wav
Peak level 98.8 %
Extraction speed 4.5 X
Track quality 99.9 %
Test CRC 8293C178
Copy CRC 8293C178
Track not present in AccurateRip database
Copy OK
Track 21
Filename D:\CDs\Various Artists - The Fatboy Slim Collection (2015) [FLAC]\Disc 3\21 - John Paul Young - Love Is In The Air.wav
Peak level 98.8 %
Extraction speed 4.0 X
Track quality 99.9 %
Test CRC 02B31909
Copy CRC 02B31909
Track not present in AccurateRip database
Copy OK
None of the tracks are present in the AccurateRip database
No errors occurred
End of status report
---- CUETools DB Plugin V2.1.6
[CTDB TOCID: kSghHwmKA_J8yjLpvEVeCTIrZD0-] found
Submit result: kSghHwmKA_J8yjLpvEVeCTIrZD0- has been confirmed
Track | CTDB Status
1 | (1/1) Accurately ripped
2 | (1/1) Accurately ripped
3 | (1/1) Accurately ripped
4 | (1/1) Accurately ripped
5 | (1/1) Accurately ripped
6 | (1/1) Accurately ripped
7 | (1/1) Accurately ripped
8 | (1/1) Accurately ripped
9 | (1/1) Accurately ripped
10 | (1/1) Accurately ripped
11 | (1/1) Accurately ripped
12 | (1/1) Accurately ripped
13 | (1/1) Accurately ripped
14 | (1/1) Accurately ripped
15 | (1/1) Accurately ripped
16 | (1/1) Accurately ripped
17 | (1/1) Accurately ripped
18 | (1/1) Accurately ripped
19 | (1/1) Accurately ripped
20 | (1/1) Accurately ripped
21 | (1/1) Accurately ripped
==== Log checksum 39B0491B591371E55D22A12964D3CE44C6EC80CA29014D882A330280DE5F3CCE ====
Exact Audio Copy V1.0 beta 6 from 9. April 2015
EAC extraction logfile from 30. May 2015, 21:11
Various Artists / The Fatboy Slim Collection
Used drive : PLDS DVD-RW DS8A8SH Adapter: 1 ID: 0
Read mode : Secure
Utilize accurate stream : Yes
Defeat audio cache : Yes
Make use of C2 pointers : No
Read offset correction : 6
Overread into Lead-In and Lead-Out : No
Fill up missing offset samples with silence : Yes
Delete leading and trailing silent blocks : No
Null samples used in CRC calculations : Yes
Used interface : Native Win32 interface for Win NT & 2000
Gap handling : Appended to previous track
Used output format : User Defined Encoder
Selected bitrate : 1024 kBit/s
Quality : High
Add ID3 tag : No
Command line compressor : C:\Program Files (x86)\Exact Audio Copy\Flac\flac.exe
Additional command line options : -8 -V -T "ARTIST=%artist%" -T "TITLE=%title%" -T "ALBUM=%albumtitle%" -T "DATE=%year%" -T "TRACKNUMBER=%tracknr2%" -T "GENRE=%genre%" -T "PERFORMER=%albuminterpret%" -T "COMPOSER=%composer%" %haslyrics%--tag-from-file=LYRICS="%lyricsfile%"%haslyrics% -T "ALBUMARTIST=%albumartist%" -T "DISCNUMBER=%cdnumber%" -T "TOTALDISCS=%totalcds%" -T "TOTALTRACKS=%numtracks%" -T "COMMENT=%comment%" %source% -o %dest%
TOC of the extracted CD
Track | Start | Length | Start sector | End sector
---------------------------------------------------------
1 | 0:00.00 | 78:06.44 | 0 | 351493
Track 1
Filename D:\CDs\Various Artists - The Fatboy Slim Collection (2015) [FLAC]\Disc 4\01 - Fatboy Slim - Fatboy Slim DJ Mix.wav
Pre-gap length 0:00:02.00
Peak level 98.8 %
Extraction speed 4.4 X
Track quality 100.0 %
Test CRC F4348417
Copy CRC F4348417
Track not present in AccurateRip database
Copy OK
None of the tracks are present in the AccurateRip database
No errors occurred
End of status report
---- CUETools DB Plugin V2.1.6
[CTDB TOCID: uSVxeRnE_ra9LVtnVrNYsJ8lzZk-] found
Submit result: uSVxeRnE_ra9LVtnVrNYsJ8lzZk- has been confirmed
Track | CTDB Status
1 | (1/1) Accurately ripped
==== Log checksum 7415A2B173C8D2CE4AFC911A7BB86FFD97E41C4A224A89F84E8EE4BEC5BDFDEB ====

Содержание индексной карты (.CUE)

REM GENRE Funk
REM DATE 2015
REM DISCID FA128512
REM COMMENT "ExactAudioCopy v1.0b6"
TITLE "The Fatboy Slim Collection"
PERFORMER "Various Artists"
FILE "01 - Fatboy Slim - Right Here, Right Now.flac" WAVE ; 230800.000 milliseconds
TRACK 01 AUDIO
TITLE "Right Here, Right Now"
PERFORMER "Fatboy Slim"
ISRC GBBMQ0600009
INDEX 01 00:00:00
FILE "02 - The Chemical Brothers - Block Rockin' Beats.flac" WAVE ; 204306.667 milliseconds
TRACK 02 AUDIO
TITLE "Block Rockin' Beats"
PERFORMER "The Chemical Brothers"
ISRC GBAAA9710569
INDEX 01 00:00:00
FILE "03 - Basement Jaxx - Where's Your Head At.flac" WAVE ; 237733.333 milliseconds
TRACK 03 AUDIO
TITLE "Where's Your Head At"
PERFORMER "Basement Jaxx"
ISRC GBBKS0100407
INDEX 01 00:00:00
FILE "04 - Wildchild - Renegade Master (Fatboy Slim Old Skool Mix).flac" WAVE ; 358826.667 milliseconds
TRACK 04 AUDIO
TITLE "Renegade Master (Fatboy Slim Old Skool Mix)"
PERFORMER Wildchild
ISRC GBAKW9700600
INDEX 01 00:00:00
FILE "05 - The Prodigy - Out Of Space.flac" WAVE ; 222320.000 milliseconds
TRACK 05 AUDIO
TITLE "Out Of Space"
PERFORMER "The Prodigy"
ISRC GBBKS9200042
INDEX 01 00:00:00
FILE "06 - Leftfield - Phat Planet.flac" WAVE ; 320680.000 milliseconds
TRACK 06 AUDIO
TITLE "Phat Planet"
PERFORMER Leftfield
ISRC GBBKN9900230
INDEX 01 00:00:00
FILE "07 - Gorillaz - 19-2000 (Soulchild Remix).flac" WAVE ; 202040.000 milliseconds
TRACK 07 AUDIO
TITLE "19-2000 (Soulchild Remix)"
PERFORMER Gorillaz
ISRC GBAYE0100564
INDEX 01 00:00:00
FILE "08 - Groove Armada - I See You Baby (Fatboy Slim Radio Edit) (feat. Gram'ma Funk).flac" WAVE ; 241693.333 milliseconds
TRACK 08 AUDIO
TITLE "I See You Baby (Fatboy Slim Radio Edit) (feat. Gram'ma Funk)"
PERFORMER "Groove Armada"
ISRC GBAHK9900141
INDEX 01 00:00:00
FILE "09 - Mint Royale - Sexiest Man In Jamaica.flac" WAVE ; 204666.667 milliseconds
TRACK 09 AUDIO
TITLE "Sexiest Man In Jamaica"
PERFORMER "Mint Royale"
ISRC GBCLV0202511
INDEX 01 00:00:00
FILE "10 - X Press 2 - Lazy (Fatboy Slim Remix) (feat. David Byrne).flac" WAVE ; 401120.000 milliseconds
TRACK 10 AUDIO
TITLE "Lazy (Fatboy Slim Remix) (feat. David Byrne)"
PERFORMER "X Press 2"
ISRC GBBMQ0200022
INDEX 01 00:00:00
FILE "11 - Armand Van Helden - NYC Beat.flac" WAVE ; 189880.000 milliseconds
TRACK 11 AUDIO
TITLE "NYC Beat"
PERFORMER "Armand Van Helden"
ISRC GBEFR0701015
INDEX 01 00:00:00
FILE "12 - Underworld - Cowgirl.flac" WAVE ; 503146.667 milliseconds
TRACK 12 AUDIO
TITLE Cowgirl
PERFORMER Underworld
ISRC UK7EF1400007
INDEX 01 00:00:00
FILE "13 - Liquid - Sweet Harmony.flac" WAVE ; 260853.333 milliseconds
TRACK 13 AUDIO
TITLE "Sweet Harmony"
PERFORMER Liquid
ISRC GBBKS9200002
INDEX 01 00:00:00
FILE "14 - Justice Vs Simian - We Are Your Friends.flac" WAVE ; 160813.333 milliseconds
TRACK 14 AUDIO
TITLE "We Are Your Friends"
PERFORMER "Justice Vs Simian"
ISRC GBAAA0600219
INDEX 01 00:00:00
FILE "15 - Air - Kelly Watch The Stars (Moog Cookbook Remix).flac" WAVE ; 338680.000 milliseconds
TRACK 15 AUDIO
TITLE "Kelly Watch The Stars (Moog Cookbook Remix)"
PERFORMER Air
ISRC FRS639800043
INDEX 01 00:00:00
FILE "16 - Cassius - 1999.flac" WAVE ; 212093.333 milliseconds
TRACK 16 AUDIO
TITLE 1999
PERFORMER Cassius
ISRC FR5Y71000023
INDEX 01 00:00:00
FILE "17 - David Morales Presents The Face - Needin' U.flac" WAVE ; 227000.000 milliseconds
TRACK 17 AUDIO
TITLE "Needin' U"
PERFORMER "David Morales Presents The Face"
ISRC GBVVQ1029688
INDEX 01 00:00:00
FILE "18 - Frankie Knuckles - Your Love (feat. Jamie Principle).flac" WAVE ; 225306.667 milliseconds
TRACK 18 AUDIO
TITLE "Your Love (feat. Jamie Principle)"
PERFORMER "Frankie Knuckles"
ISRC GBBLG0100312
INDEX 01 00:00:00
REM GENRE Funk
REM DATE 2015
REM DISCID 18126F13
REM COMMENT "ExactAudioCopy v1.0b6"
TITLE "The Fatboy Slim Collection"
PERFORMER "Various Artists"
FILE "01 - Beats International Vs. Sideburn & Viktor Kaman - Dub Be Good To Me (Fatboy Slim Re-Edit).flac" WAVE ; 222986.667 milliseconds
TRACK 01 AUDIO
TITLE "Dub Be Good To Me (Fatboy Slim Re-Edit)"
PERFORMER "Beats International Vs. Sideburn & Viktor Kaman"
ISRC GBARL1500479
INDEX 01 00:00:00
FILE "02 - Pizzaman - Trippin On Sunshine.flac" WAVE ; 411146.667 milliseconds
TRACK 02 AUDIO
TITLE "Trippin On Sunshine"
PERFORMER Pizzaman
ISRC GB5KW1501218
INDEX 01 00:00:00
FILE "03 - Ruffneck - Everybody Be Somebody (feat. Yavahn).flac" WAVE ; 221413.333 milliseconds
TRACK 03 AUDIO
TITLE "Everybody Be Somebody (feat. Yavahn)"
PERFORMER Ruffneck
ISRC NLML61010088
INDEX 01 00:00:00
FILE "04 - Beastie Boys - Body Movin' (Fatboy Slim Remix).flac" WAVE ; 331840.000 milliseconds
TRACK 04 AUDIO
TITLE "Body Movin' (Fatboy Slim Remix)"
PERFORMER "Beastie Boys"
ISRC USCA29901032
INDEX 01 00:00:00
FILE "05 - Jungle Brothers - I'll House You.flac" WAVE ; 221586.667 milliseconds
TRACK 05 AUDIO
TITLE "I'll House You"
PERFORMER "Jungle Brothers"
ISRC USWR38802206
INDEX 01 00:00:00
FILE "06 - Stetsasonic - Talkin' All That Jazz (Dim's Radio Edit).flac" WAVE ; 262386.667 milliseconds
TRACK 06 AUDIO
TITLE "Talkin' All That Jazz (Dim's Radio Edit)"
PERFORMER Stetsasonic
ISRC USTB10100629
INDEX 01 00:00:00
FILE "07 - Switch - A Bit Patchy.flac" WAVE ; 166120.000 milliseconds
TRACK 07 AUDIO
TITLE "A Bit Patchy"
PERFORMER Switch
ISRC GBCEN0600074
INDEX 01 00:00:00
FILE "08 - Raven Maize - The Real Life (Fatboy Slim Remix Edit).flac" WAVE ; 270120.000 milliseconds
TRACK 08 AUDIO
TITLE "The Real Life (Fatboy Slim Remix Edit)"
PERFORMER "Raven Maize"
ISRC GBPKF1500051
INDEX 01 00:00:00
FILE "09 - Layo & Bushwacka! - Love Story.flac" WAVE ; 313133.333 milliseconds
TRACK 09 AUDIO
TITLE "Love Story"
PERFORMER "Layo & Bushwacka!"
ISRC GBBKS0200046
INDEX 01 00:00:00
FILE "10 - Static Revenger - Happy People.flac" WAVE ; 238226.667 milliseconds
TRACK 10 AUDIO
TITLE "Happy People"
PERFORMER "Static Revenger"
ISRC QM74V1510020
INDEX 01 00:00:00
FILE "11 - Scanty Sandwich - Because Of You.flac" WAVE ; 177920.000 milliseconds
TRACK 11 AUDIO
TITLE "Because Of You"
PERFORMER "Scanty Sandwich"
ISRC GBEFR0400214
INDEX 01 00:00:00
FILE "12 - Mighty Dub Katz - Magic Carpet Ride.flac" WAVE ; 189160.000 milliseconds
TRACK 12 AUDIO
TITLE "Magic Carpet Ride"
PERFORMER "Mighty Dub Katz"
ISRC GBEFR0701007
INDEX 01 00:00:00
FILE "13 - Helicopter - On Ya Way.flac" WAVE ; 364093.333 milliseconds
TRACK 13 AUDIO
TITLE "On Ya Way"
PERFORMER Helicopter
ISRC GBANB9600043
INDEX 01 00:00:00
FILE "14 - Atlantic Ocean - Waterfall (Original Netherlands Mix 7'' Radio Edit).flac" WAVE ; 201400.000 milliseconds
TRACK 14 AUDIO
TITLE "Waterfall (Original Netherlands Mix 7' Radio Edit)"
PERFORMER "Atlantic Ocean"
ISRC GBAHK0300207
INDEX 01 00:00:00
FILE "01 - Beats International Vs. Sideburn & Viktor Kaman - Dub Be Good To Me (Fatboy Slim Re-Edit).flac" WAVE ; 222986.667 milliseconds
TRACK 15 AUDIO
TITLE "Yeke Yeke (Hardfloor Edit)"
PERFORMER "Mory Kantй"
ISRC FRZ019400730
INDEX 01 00:00:00
FILE "16 - Heller & Farley Project - Ultra Flava (Original Flava).flac" WAVE ; 232666.667 milliseconds
TRACK 16 AUDIO
TITLE "Ultra Flava (Original Flava)"
PERFORMER "Heller & Farley Project"
ISRC GBAAM9601049
INDEX 01 00:00:00
FILE "17 - Jaydee - Plastic Dreams.flac" WAVE ; 199266.667 milliseconds
TRACK 17 AUDIO
TITLE "Plastic Dreams"
PERFORMER Jaydee
ISRC NLC281011778
INDEX 01 00:00:00
FILE "18 - De'Lacy - Hideaway (Deep Dish Radio Edit).flac" WAVE ; 205813.333 milliseconds
TRACK 18 AUDIO
TITLE "Hideaway (Deep Dish Radio Edit)"
PERFORMER De'Lacy
ISRC GBBGH9632106
INDEX 01 00:00:00
FILE "19 - Clivilles & Cole - A Deeper Love (A Deeper Love Mix).flac" WAVE ; 254440.000 milliseconds
TRACK 19 AUDIO
TITLE "A Deeper Love (A Deeper Love Mix)"
PERFORMER "Clivilles & Cole"
ISRC USSM19200184
INDEX 01 00:00:00
REM GENRE Electro
REM DATE 2015
REM DISCID 2612B015
REM COMMENT "ExactAudioCopy v1.0b6"
TITLE "The Fatboy Slim Collection"
PERFORMER "Various Artists"
FILE "01 - Fatboy Slim & Riva Starr - Eat Sleep Rave Repeat (Calvin Harris Edit) (feat. Beardyman).flac" WAVE ; 168360.000 milliseconds
TRACK 01 AUDIO
TITLE "Eat Sleep Rave Repeat (Calvin Harris Edit) (feat. Beardyman)"
PERFORMER "Fatboy Slim & Riva Starr"
ISRC GBBMQ1300127
INDEX 01 00:00:00
FILE "02 - Chuckie & LMFAO - Let The Bass Kick In Miami Bitch.flac" WAVE ; 163946.667 milliseconds
TRACK 02 AUDIO
TITLE "Let The Bass Kick In Miami Bitch"
PERFORMER "Chuckie & LMFAO"
ISRC GBHAD1000029
INDEX 01 00:00:00
FILE "03 - Sidney Samson - Riverside (Let's Go!) (feat. Wizard Sleeve).flac" WAVE ; 154893.333 milliseconds
TRACK 03 AUDIO
TITLE "Riverside (Let's Go!) (feat. Wizard Sleeve)"
PERFORMER "Sidney Samson"
ISRC NLC280911444
INDEX 01 00:00:00
FILE "04 - Fedde Le Grand - Put Your Hands Up For Detroit.flac" WAVE ; 142866.667 milliseconds
TRACK 04 AUDIO
TITLE "Put Your Hands Up For Detroit"
PERFORMER "Fedde Le Grand"
ISRC GBHAD1500095
INDEX 01 00:00:00
FILE "05 - Benny Benassi Presents The Biz - Satisfaction.flac" WAVE ; 191200.000 milliseconds
TRACK 05 AUDIO
TITLE Satisfaction
PERFORMER "Benny Benassi Presents The Biz"
ISRC IT00D0206406
INDEX 01 00:00:00
FILE "06 - Tim Deluxe - It Just Won't Do (feat. Sam Obernik).flac" WAVE ; 199146.667 milliseconds
TRACK 06 AUDIO
TITLE "It Just Won't Do (feat. Sam Obernik)"
PERFORMER "Tim Deluxe"
ISRC GBP2Q1000049
INDEX 01 00:00:00
FILE "07 - Major Lazer - Pon De Floor (feat. VYBZ Kartel & Afrojack).flac" WAVE ; 213320.000 milliseconds
TRACK 07 AUDIO
TITLE "Pon De Floor (feat. VYBZ Kartel & Afrojack)"
PERFORMER "Major Lazer"
ISRC USCJ80900290
INDEX 01 00:00:00
FILE "08 - Showtek - Booyah (feat. We Are Loud! & Sonny Wilson).flac" WAVE ; 216026.667 milliseconds
TRACK 08 AUDIO
TITLE "Booyah (feat. We Are Loud! & Sonny Wilson)"
PERFORMER Showtek
ISRC NLDD61300075
INDEX 01 00:00:00
FILE "09 - Diddy Dirty Money - Coming Home (Dirty South Vocal Remix) (feat. Skylar Grey).flac" WAVE ; 416800.000 milliseconds
TRACK 09 AUDIO
TITLE "Coming Home (Dirty South Vocal Remix) (feat. Skylar Grey)"
PERFORMER "Diddy Dirty Money"
ISRC USUM71104391
INDEX 01 00:00:00
FILE "10 - Chocolate Puma - Step Back (feat. Kris Kiss).flac" WAVE ; 341573.333 milliseconds
TRACK 10 AUDIO
TITLE "Step Back (feat. Kris Kiss)"
PERFORMER "Chocolate Puma"
ISRC NLBW51400018
INDEX 01 00:00:00
FILE "11 - Mason - Exceeder.flac" WAVE ; 175413.333 milliseconds
TRACK 11 AUDIO
TITLE Exceeder
PERFORMER Mason
ISRC NLF711312396
INDEX 01 00:00:00
FILE "12 - Zombie Nation - Kernkraft 400.flac" WAVE ; 208293.333 milliseconds
TRACK 12 AUDIO
TITLE "Kernkraft 400"
PERFORMER "Zombie Nation"
ISRC DEZ200500014
INDEX 01 00:00:00
FILE "13 - Camisra - Let Me Show You.flac" WAVE ; 202720.000 milliseconds
TRACK 13 AUDIO
TITLE "Let Me Show You"
PERFORMER Camisra
ISRC GBCFZ0900356
INDEX 01 00:00:00
FILE "14 - Da Hool - Meet Her At The Love Parade (Nalin & Kane Mix).flac" WAVE ; 332840.000 milliseconds
TRACK 14 AUDIO
TITLE "Meet Her At The Love Parade (Nalin & Kane Mix)"
PERFORMER "Da Hool"
ISRC GBF089700725
INDEX 01 00:00:00
FILE "15 - Azzido Da Bass - Dooms Night (Timo Maas Radio Edit).flac" WAVE ; 225026.667 milliseconds
TRACK 15 AUDIO
TITLE "Dooms Night (Timo Maas Radio Edit)"
PERFORMER "Azzido Da Bass"
ISRC DEN060700491
INDEX 01 00:00:00
FILE "16 - Cut and Paste - Forget It.flac" WAVE ; 185680.000 milliseconds
TRACK 16 AUDIO
TITLE "Forget It"
PERFORMER "Cut and Paste"
ISRC GBCGN9900073
INDEX 01 00:00:00
FILE "17 - Aphrodite & Micky Finn - Drop Top Caddy.flac" WAVE ; 219160.000 milliseconds
TRACK 17 AUDIO
TITLE "Drop Top Caddy"
PERFORMER "Aphrodite & Micky Finn"
ISRC GBDRT0501002
INDEX 01 00:00:00
FILE "18 - Jagga - Na Na Na (Acido Latino Mix).flac" WAVE ; 335533.333 milliseconds
TRACK 18 AUDIO
TITLE "Na Na Na (Acido Latino Mix)"
PERFORMER Jagga
ISRC GBLFM1500077
INDEX 01 00:00:00
FILE "19 - Ninetoes - Finder (The Path).flac" WAVE ; 206600.000 milliseconds
TRACK 19 AUDIO
TITLE "Finder (The Path)"
PERFORMER Ninetoes
ISRC DENC31200194
INDEX 01 00:00:00
FILE "20 - Fatboy Slim vs Jerome Robins - Uptown Funk (feat. Idris Elba).flac" WAVE ; 283533.333 milliseconds
TRACK 20 AUDIO
TITLE "Uptown Funk (feat. Idris Elba)"
PERFORMER "Fatboy Slim vs Jerome Robins"
ISRC GBEFR1308670
INDEX 01 00:00:00
FILE "21 - John Paul Young - Love Is In The Air.flac" WAVE ; 201506.667 milliseconds
TRACK 21 AUDIO
TITLE "Love Is In The Air"
PERFORMER "John Paul Young"
ISRC AUAP07800004
INDEX 01 00:00:00
REM GENRE Electro
REM DATE 2015
REM DISCID 02124E01
REM COMMENT "ExactAudioCopy v1.0b6"
TITLE "The Fatboy Slim Collection"
PERFORMER "Various Artists"
FILE "01 - Fatboy Slim - Fatboy Slim DJ Mix.flac" WAVE ; 4686586.667 milliseconds
TRACK 01 AUDIO
TITLE "Fatboy Slim DJ Mix"
PERFORMER "Fatboy Slim"
ISRC GBARL1500501
INDEX 01 00:00:00

Создавать темы 03-Июн-2015 13:25

[Профиль]  [ЛС] 
Показать сообщения:    
Ответить на тему

Текущее время: 15-Дек 13:30

Часовой пояс: UTC + 5



Вы не можете начинать темы
Вы не можете отвечать на сообщения
Вы не можете редактировать свои сообщения
Вы не можете удалять свои сообщения
Вы не можете голосовать в опросах
Вы не можете прикреплять файлы к сообщениям
Вы не можете скачивать файлы