Святой Винсент / St. Vincent (Тед Мелфи) [2015, США, комедия, HDRip]

Ответить на тему
 

davron1997 ®

Стаж: 5 лет 7 месяцев

Сообщений: 26

Симпатии: 31

Святой Винсент \ St. Vincent- Страна: США
Режиссер: Тед Мелфи
Жанр:комедия
Год выхода: 2015
Перевод: Любительский(двухголосый)
В ролях:
Билл Мюррей, Мелисса МакКарти, Наоми Уоттс, Крис О
Дауд, Терренс Ховард, Джейден Либерер, Кимберли
Куинн, Ленни Венито, Нэйт Корддри, Дарио Бароссо.

Описание: Фильм расскажет о 12-летнем мальчике, который,
переживая развод своих родителей, заводит дружбу с
пожилым соседом, пьющим ветераном войны, любящим
азартные игры и проституток. И вот этот нелюдимый и
далеко не положительный с виду человек становится
наставником парнишки.
Дополнительная информация:

Качество: HDRip
Видео: XviD, 1721 kb/s, 720x384
Аудио кодек: AC3, 192 kb/s (2 ch)

MediaInfo

Svyatoy.Vinsent.2014.HDRip.avi
Format : AVI
Format/Info : Audio Video Interleave
File size : 1.37 GiB
Duration : 1h 42mn
Overall bit rate : 1 901 Kbps
Writing application : VirtualDubMod 1.5.10.2 (build 2540/release)
Writing library : VirtualDubMod build 2540/release
Video
ID : 0
Format : MPEG-4 Visual
Format profile : Advanced [email protected]
Format settings, BVOP : 4
Format settings, QPel : No
Format settings, GMC : 3 warppoints
Format settings, Matrix : Default (MPEG)
Codec ID : XVID
Codec ID/Hint : XviD
Duration : 1h 42mn
Bit rate : 1 700 Kbps
Width : 720 pixels
Height : 384 pixels
Display aspect ratio : 1.85:1
Frame rate : 23.976 fps
Color space : YUV
Chroma subsampling : 4:2:0
Bit depth : 8 bits
Scan type : Progressive
Compression mode : Lossy
Bits/(Pixel*Frame) : 0.256
Stream size : 1.22 GiB (89%)
Writing library : XviD 1.2.1 (UTC 2008-12-04)
Audio
ID : 1
Format : MPEG Audio
Format version : Version 1
Format profile : Layer 3
Mode : Joint stereo
Codec ID : 55
Codec ID/Hint : MP3
Duration : 1h 42mn
Bit rate mode : Constant
Bit rate : 192 Kbps
Channel(s) : 2 channels
Sampling rate : 48.0 KHz
Compression mode : Lossy
Stream size : 141 MiB (10%)
Alignment : Aligned on interleaves
Interleave, duration : 42 ms (1.00 video frame)
Interleave, preload duratio : 504 ms
Writing library : LAME3.99.5

Скриншоты:



-


Последний раз редактировалось: davron1997 (2015-06-03 21:49), всего редактировалось 3 раз(а)

Создавать темы 03-Июн-2015 19:35

[Профиль]  [ЛС] 

Каротажник

Стаж: 3 года 10 месяцев

Сообщений: 195

Симпатии: 211

davron1997, для одного релиза одного постера достаточно
уберите второй постер, качество измените на HDRip
до пишите формат видео

Создавать темы 03-Июн-2015 19:47

[Профиль]  [ЛС] 

davron1997 ®

Стаж: 5 лет 7 месяцев

Сообщений: 26

Симпатии: 31

939005davron1997, для одного релиза одного постера достаточно
уберите второй постер, качество измените на HDRip
до пишите формат видео
да я пользуюсь программой ARW

Создавать темы 03-Июн-2015 21:50

[Профиль]  [ЛС] 

mars751

Стаж: 5 лет 4 месяца

Сообщений: 227

Симпатии: 113

"Каротажник",davron1997, премьера (мир) 5 сентября 2014,

Создавать темы 15-Июл-2015 07:53

[Профиль]  [ЛС] 

avialex

Стаж: 6 лет 9 месяцев

Сообщений: 9

Звук опережает видео на 13 секунд

Создавать темы 24-Июл-2015 16:50

[Профиль]  [ЛС] 

mars751

Стаж: 5 лет 4 месяца

Сообщений: 227

Симпатии: 113

945403Звук опережает видео на 13 секунд
та же фигня. я думал только у меня у одного так

Создавать темы 24-Июл-2015 17:03

[Профиль]  [ЛС] 
Показать сообщения:    
Ответить на тему

Текущее время: 17-Авг 20:30

Часовой пояс: UTC + 5



Вы не можете начинать темы
Вы не можете отвечать на сообщения
Вы не можете редактировать свои сообщения
Вы не можете удалять свои сообщения
Вы не можете голосовать в опросах
Вы не можете прикреплять файлы к сообщениям
Вы не можете скачивать файлы