Деловая женщина / Working Girl (Майк Николс) [1988, США, Драма, мелодрама, комедия, DVDRip] (Dub)

Ответить на тему
 

Decadence ®

Стаж: 5 лет 1 месяц

Сообщений: 65

Симпатии: 32

Деловая женщина / Working Girl
Страна: США
Жанр: Драма, мелодрама, комедия
Год выпуска: 1988
Продолжительность: 01:48:54
Перевод: Профессиональный (дублированный)
Cубтитры: нет
Режиссер: Майк Николс
В ролях: Мелани Гриффит, Харрисон Форд, Сигурни Уивер, Алек Болдуин, Джоан Кьюсак, Филип Боско, Нора Данн, Оливер Платт, Джеймс Лэлли, Кевин Спейси
Описание: Предприимчивая Нью-Йоркская машинистка Тесс Мак Гилл мечтает о головокружительной карьере. Но на пути к осуществлению мечты стоит серьезная преграда, Она не умеет одеваться, стричься, общаться с нужными людьми. Но каждому человеку дается шанс устроить свою жизнь. Такой шанс был дан и Мак Гилл, она получила шанс выступить в роли руководителя высшего звена, когда ее начальница сломала ногу, отдыхая в Европе.
Незамедлительно Тесс занимает ее место, знакомится с биржевым брокером и заключает крупную сделку. Когда отдохнувшая и выздоровевшая начальница возвращается на работу, она понимает, что место ее занято, жених ушел к другой, и существует миллион других мелких неприятностей.
 
Качество видео: DVDRip
Формат видео: AVI
Видео: XviD, 672x368, 25.000 fps, 843 kbps
Аудио: MP3, 48.0 KHz, 2 channels, 128 kbps

MediaInfo

General
Complete name : Working Girl.avi
Format : AVI
Format/Info : Audio Video Interleave
File size : 746 MiB
Duration : 1h 48mn
Overall bit rate mode : Variable
Overall bit rate : 958 Kbps
Writing application : VirtualDubMod 1.5.4.1 (build 2178/release)
Writing library : VirtualDubMod build 2178/release
Video #0
ID : 0
Format : MPEG-4 Visual
Format profile : Advanced [email protected]
Format settings, BVOP : 1
Format settings, QPel : No
Format settings, GMC : No warppoints
Format settings, Matrix : Custom
Codec ID : XVID
Codec ID/Hint : XviD
Duration : 1h 48mn
Bit rate : 843 Kbps
Width : 672 pixels
Height : 368 pixels
Display aspect ratio : 1.85:1
Frame rate : 25.000 fps
Color space : YUV
Chroma subsampling : 4:2:0
Bit depth : 8 bits
Scan type : Progressive
Compression mode : Lossy
Bits/(Pixel*Frame) : 0.136
Stream size : 657 MiB (88%)
Writing library : XviD 1.2.1 (UTC 2008-12-04)
Audio #1
ID : 1
Format : MPEG Audio
Format version : Version 1
Format profile : Layer 3
Mode : Joint stereo
Mode extension : MS Stereo
Codec ID : 55
Codec ID/Hint : MP3
Duration : 1h 48mn
Bit rate mode : Variable
Bit rate : 102 Kbps
Nominal bit rate : 128 Kbps
Channel(s) : 2 channels
Sampling rate : 48.0 KHz
Compression mode : Lossy
Stream size : 79.2 MiB (11%)
Alignment : Aligned on interleaves
Interleave, duration : 24 ms (0.60 video frame)
Interleave, preload duration : 502 ms
Writing library : LAME3.98r
Encoding settings : -m j -V 4 -q 2 -lowpass 17 --abr 128
Language : Russian

Скриншот c названием фильма

Скриншоты



Создавать темы 03-Июн-2015 20:49

[Профиль]  [ЛС] 

ustas

Стаж: 8 лет 10 месяцев

Сообщений: 53

Симпатии: 17

какие все молодые
даже Спейси еле узнал-то )

Создавать темы 03-Июн-2015 20:52

[Профиль]  [ЛС] 
Показать сообщения:    
Ответить на тему

Текущее время: 19-Ноя 02:38

Часовой пояс: UTC + 5



Вы не можете начинать темы
Вы не можете отвечать на сообщения
Вы не можете редактировать свои сообщения
Вы не можете удалять свои сообщения
Вы не можете голосовать в опросах
Вы не можете прикреплять файлы к сообщениям
Вы не можете скачивать файлы