Джонатан Стрендж и мистер Норрелл / Jonathan Strange & Mr Norrell / Сезон 1 / Серии 1-7 (7) [2015, фэнтези, история, HDTVRip] MVO (AlexFilm)

Ответить на тему
 

PupuseG ®

Стаж: 5 лет 1 месяц

Сообщений: 514

Симпатии: 64

Джонатан Стрендж и мистер Норрелл / Jonathan Strange & Mr Norrell- Год выпуска: 2015
Страна: Великобритания
Жанр: фэнтези, история
Продолжительность: 1 х ~60 мин
Озвучание: профессиональное многоголосое закадровое (AlexFilm)
Субтитры: нет-Режиссер: Тоби Хэйнс-В ролях: Марк Уоррен, Эрион Бакаре, Берти Карвел, Энцо Чиленти, Элис Энглерт, Винсент Франклин, Джон Хеффернан, Эдвард Хогг, Пол Кэй, Эдди Марсан-Описание: История начинается в альтернативной Англии XIX века в период Наполеоновских войн. Английская магия, когда-то утраченная возвращается благодаря консервативному Гильберту Норреллу и дерзкому новичку Джонатану Стренджу. Мистер Норрелл воскрешает невесту высокопоставленного правительственного чиновника, заключив для этого сделку с потусторонними силами, тем самым запустив череду непредсказуемых и трагических событий.- -Качество: HDTVRip
Формат: AVI
Видео: 720x400 (1.80:1), 23.976 fps, XviD ~1400 kbps avg, 0.20 bit/pixel
Аудио Rus: 48 kHz, MPEG Layer 3, 2 ch, ~128.00 kbps
Аудио Eng: 48 kHz, MPEG Layer 3, 2 ch, ~128.00 kbps-

MediaInfo

Complete name : D:\Video\Сериалы\Jonathan Strange and Mr.Norrell - Season 1 (AlexFilm) HDTVRip\Jonathan.Strange.and.Mr.Norrell.s01e02.HDTVRip.Rus.Eng.AlexFilm.avi
Format : AVI
Format/Info : Audio Video Interleave
File size : 700 MiB
Duration : 59mn 10s
Overall bit rate : 1 654 Kbps
Movie name : Jonathan Strange and Mr.Norrell 1x02 Job @ AlexFilm
Writing application : VirtualDubMod 1.5.10.2 (build 2540/release)
Writing library : VirtualDubMod build 2540/release
Video
ID : 0
Format : MPEG-4 Visual
Format profile : Advanced [email protected]
Format settings, BVOP : No
Format settings, QPel : No
Format settings, GMC : No warppoints
Format settings, Matrix : Default (H.263)
Codec ID : XVID
Codec ID/Hint : XviD
Duration : 59mn 10s
Bit rate : 1 384 Kbps
Width : 720 pixels
Height : 400 pixels
Display aspect ratio : 16:9
Frame rate : 25.000 fps
Color space : YUV
Chroma subsampling : 4:2:0
Bit depth : 8 bits
Scan type : Progressive
Compression mode : Lossy
Bits/(Pixel*Frame) : 0.192
Stream size : 586 MiB (84%)
Writing library : XviD 73
Audio #1
ID : 1
Format : MPEG Audio
Format version : Version 1
Format profile : Layer 3
Mode : Joint stereo
Mode extension : MS Stereo
Codec ID : 55
Codec ID/Hint : MP3
Duration : 59mn 10s
Bit rate mode : Constant
Bit rate : 128 Kbps
Channel(s) : 2 channels
Sampling rate : 48.0 KHz
Compression mode : Lossy
Stream size : 54.2 MiB (8%)
Alignment : Aligned on interleaves
Interleave, duration : 40 ms (1.00 video frame)
Interleave, preload duratio : 504 ms
Title : Russian (AlexFilm)
Writing library : LAME3.99r
Encoding settings : -m j -V 4 -q 3 -lowpass 18 -b 128
Audio #2
ID : 2
Format : MPEG Audio
Format version : Version 1
Format profile : Layer 3
Mode : Joint stereo
Mode extension : MS Stereo
Codec ID : 55
Codec ID/Hint : MP3
Duration : 59mn 10s
Bit rate mode : Constant
Bit rate : 128 Kbps
Channel(s) : 2 channels
Sampling rate : 48.0 KHz
Compression mode : Lossy
Stream size : 54.2 MiB (8%)
Alignment : Aligned on interleaves
Interleave, duration : 40 ms (1.00 video frame)
Interleave, preload duratio : 504 ms
Title : English
Writing library : LAME3.90.3

Скриншоты




Раздача ведется путем добавления новых серий

Когда раздача ведётся путём добавления новых серий, при каждом добавлении создётся новый торрент. Чтобы начать докачку новой серии, пользователям необходимо сделать следующее:
(1) остановить скачивание,
(2) удалить старый торрент у себя из клиента (старые серии удалять не надо),
(3) скачать новый торрент и запустить его у себя в клиенте вместо старого, при этом указать клиенту путь в старую папку, куда и должно происходить скачивание новых серий.
Ваш клиент при этом должен произвести хеширование (проверку) старой папки (если не производит сам - помогите ему сделать это), и будет докачивать только те серии, которых у вас ещё нет. Старые серии при этом не удаляются, а продолжают раздаваться!
Eсли вы уже удалили старые серии, то предотвратить повторную закачку старых серий можно, отжав галочку в соответсвующих местах при запуске нового торрента. По возможности, желательно не удалять старые серии как можно дольше, чтобы релизёр не столько продолжал раздавать старые серии, а смог сконцентрироваться на новых.


Последний раз редактировалось: PupuseG (2015-07-09 17:44), всего редактировалось 7 раз(а)

Создавать темы 04-Июн-2015 07:06

[Профиль]  [ЛС] 

PupuseG ®

Стаж: 5 лет 1 месяц

Сообщений: 514

Симпатии: 64

4-я серия!

Создавать темы 10-Июн-2015 11:03

[Профиль]  [ЛС] 

PupuseG ®

Стаж: 5 лет 1 месяц

Сообщений: 514

Симпатии: 64

5-я серия!

Создавать темы 18-Июн-2015 20:57

[Профиль]  [ЛС] 

PupuseG ®

Стаж: 5 лет 1 месяц

Сообщений: 514

Симпатии: 64

6-я серия!

Создавать темы 25-Июн-2015 15:10

[Профиль]  [ЛС] 

PupuseG ®

Стаж: 5 лет 1 месяц

Сообщений: 514

Симпатии: 64

7-я серия! Финал сезона!
З.Ы. Я не понял почему студия свой релиз переделала на HDrip, по этому последняя серия в таком качестве.

Создавать темы 04-Июл-2015 04:45

[Профиль]  [ЛС] 

PupuseG ®

Стаж: 5 лет 1 месяц

Сообщений: 514

Симпатии: 64

LegionTD, сериал интересный на мой взгляд. А вот качать или нет - решать Вам!

Создавать темы 07-Июл-2015 02:25

[Профиль]  [ЛС] 
Показать сообщения:    
Ответить на тему

Текущее время: 20-Ноя 22:25

Часовой пояс: UTC + 5



Вы не можете начинать темы
Вы не можете отвечать на сообщения
Вы не можете редактировать свои сообщения
Вы не можете удалять свои сообщения
Вы не можете голосовать в опросах
Вы не можете прикреплять файлы к сообщениям
Вы не можете скачивать файлы