По закону джунглей / Охотник / Shikari / The Hunter (Умеш Мехра, Латиф Файзиев) [1991, "Юнайтед Продьюсерс", "Игл-филмз" (Индия), "Шарк-Фильм" (Узбекистан), Мелодрама, семейный, приключения, боевик, криминал, DVDRip]

Ответить на тему
 

orzu ®

Стаж: 6 лет 4 месяца

Сообщений: 50

Симпатии: 32

По закону джунглей / Охотник / Shikari / The Hunter / Полная индийская версия
Страна: "Юнайтед Продьюсерс", "Игл-филмз" (Индия), "Шарк-Фильм" (Узбекистан)
Жанр: Мелодрама, семейный, приключения, боевик, криминал
Год выпуска: 1991
Продолжительность: 02:37:59
Перевод: Профессиональный (дублированный)
Cубтитры: русские
Режиссер: Умеш Мехра, Латиф Файзиев
В ролях: Митхун Чакраборти, Ирина Кушнарёва, Махмуд Исмаилов, Насируддин Шах, Варша Усгаонкар, Мурад Раджабов, Гульшан Гровер, Лиллипут, Амриш Пури, Обид Асомов, Анджана Мумтаз, Бахтиёр Ихтияров, Наиля Ташкенбаева, Хусан Шарипов, Шеркузи Газиев, Соат Шарипов, Банти, Мастер Банти, Али Асгар, Руча Гужрати, Иногам Адылов, Вахаб Абдуллаев, Раджаб Адашев, Ачьют Потдар, Гаухар Закирова, Машраб Кимсанов, Барно Кадырова, Батыр Курбанов, Винод Мехра, Закир Муминов, Джанардхан Параб, Дара Сингх, Георгий Строков, Джамиля Садыкова, Г. Таибов, Джамал Хашимов, Амрит Пал, Радж Мехра, Паппу, Премлал
Описание: В небольшой индийской деревне живет семья бедняков. Шанкар и Чанчал зарабатывают на жизнь, выступая на улицах с дрессированным слоном Aпу. В Индию на гастроли приезжает русский цирк. Между Шанкаром и артисткой цирка Наташей завязалась любовь.
Цирк предлагает Шанкару работу. Неожиданно в их судьбу вмешиваются контрабандисты, которым нужен слон для транспортировки в его клетке героина. Они похитили слона, убит отец Шанкара. Теперь он будет действовать по закону джунглей и отомстит...
Доп. информация: Предлагаю вашему вниманию полную индийскую версию нашего любимого фильма!!! Фильм начинается заставкой индийской киностудии "Игл Филмз" и советскими начальными титрами на русском языке (Это единственная полная версия с таким началом. Все имеющиеся в Сети другие версии фильма начинаются с индийских начальных титров). Далее и до конца следует индийская версия фильма. Песни и вырезанные в советском прокате фрагменты переведены субитрами.
Качество видео: DVDRip
Формат видео: AVI
Видео: 640x352 (1.82:1), 23,97 fps, DivX Codec 4.x ~999 kbps avg, 0.19 bit/pixel
Аудио: 48 kHz, AC3 Dolby Digital, 2/0 (L,R) ch, ~192 kbps

MediaInfo

General
Complete name : D:\Po zakonu dzhungley.1991.avi
Format : AVI
Format/Info : Audio Video Interleave
File size : 1.33 GiB
Duration : 2h 37mn
Overall bit rate : 1 201 Kbps
Writing application : VirtualDubMod 1.5.10.3 (build 2550/release)
Writing library : VirtualDubMod build 2550/release
Video
ID : 0
Format : MPEG-4 Visual
Format profile : [email protected]
Format settings, BVOP : No
Format settings, QPel : No
Format settings, GMC : No warppoints
Format settings, Matrix : Default (H.263)
Codec ID : DIVX
Codec ID/Info : Project Mayo
Codec ID/Hint : DivX 4
Duration : 2h 37mn
Bit rate : 1 000 Kbps
Width : 640 pixels
Height : 352 pixels
Display aspect ratio : 16:9
Frame rate : 24.000 fps
Color space : YUV
Chroma subsampling : 4:2:0
Bit depth : 8 bits
Scan type : Progressive
Compression mode : Lossy
Bits/(Pixel*Frame) : 0.185
Stream size : 1.10 GiB (83%)
Writing library : avc2.0.11.1110
Audio
ID : 1
Format : AC-3
Format/Info : Audio Coding 3
Mode extension : CM (complete main)
Format settings, Endianness : Big
Codec ID : 2000
Duration : 2h 37mn
Bit rate mode : Constant
Bit rate : 192 Kbps
Channel(s) : 2 channels
Channel positions : Front: L R
Sampling rate : 48.0 KHz
Bit depth : 16 bits
Compression mode : Lossy
Stream size : 217 MiB (16%)
Alignment : Split accross interleaves
Interleave, duration : 42 ms (1.00 video frame)
Interleave, preload duration : 500 ms

Скриншоты





Создавать темы 04-Июн-2015 19:30

[Профиль]  [ЛС] 

Hayit

Стаж: 3 года 9 месяцев

Сообщений: 11

Симпатии: 2

так фильм поностью на русском или субтитры ? ca ca

Создавать темы 05-Июн-2015 21:21

[Профиль]  [ЛС] 

orzu ®

Стаж: 6 лет 4 месяца

Сообщений: 50

Симпатии: 32

Фильм на русском. Только песни и вырезанные в советском прокате фрагменты переведены субтитрами.

Создавать темы 06-Июн-2015 04:52

[Профиль]  [ЛС] 
Показать сообщения:    
Ответить на тему

Текущее время: 20-Ноя 07:23

Часовой пояс: UTC + 5



Вы не можете начинать темы
Вы не можете отвечать на сообщения
Вы не можете редактировать свои сообщения
Вы не можете удалять свои сообщения
Вы не можете голосовать в опросах
Вы не можете прикреплять файлы к сообщениям
Вы не можете скачивать файлы