Война волков / Wolfwarroirs (Джеки Ву) [2015, Китай, боевик, военный, WebRip] (VO) (Sub Eng)

Ответить на тему
 

Davron1402 ®

Стаж: 3 года 9 месяцев

Сообщений: 136

Симпатии: 122

Война волков / Wolfwarroirs- Страна: Китай
Жанр: боевик, военный
Год выпуска: 2015
Продолжительность: 01:30:02
Перевод: Одноголосый закадровый
Cубтитры:Присутствуют вшитые неотключаемые английские и китайские субтитры.
Режиссер: Джеки Ву
В ролях: Джеки Ву, Скотт Эдкинс, Кевин Ли, Кайл Шапиро, Кристофер Коллинз, Цзыи Ден, Сона Эямбе, Сэмюэл Тивирдж, Нань Юй, Вэньчжо Чжао
Описание: Своенравное поведение командира Лэн Фэна, офицера спецназа, часто вызывает недовольство у вышестоящего начальства. Во время штурма тайного убежища наркоторговцев Фэн нарушает прямой приказ и спасает положение, метким выстрелом убивая наркобарона. После отбывания срока за неподчинение приказам и неповиновение, Фэна, благодаря его навыкам и храбрости, принимают в китайский элитный отряд под названием «Wolf Warrior». Пройдя вместе со своими подчинёнными ряд суровых занятий и тренировок, он, в итоге, собирает команду, которую может назвать своей собственной. Но дело принимает плохой оборот, когда во время финальной стадии учений они попадают в засаду, устроенную высококвалифицированными иностранными наёмниками во главе с Томом, поклявшимся отомстить Лэн Фэну и его людям за убийство своего бывшего работодателя. Линия фронта очерчена, и отступать или сдаваться не собирается ни одна из сторон.-Качество видео: WebRip
Формат видео: AVI
Видео: XVID, 720 x 304 (2.35:1), 23.976 fps, 1 779 Kbps
Аудио: AC-3, 48.0 KHz, 2 channels, 192 Kbps
Аудио: AC-3, 48.0 KHz, 2 channels, 192 Kbps- 

MediaInfo

Имя файла: Wolf.Warriors.2015.L1.WEBRip.1400MB.avi
Формат файла: .avi (AVI)
Размер файла: 1.37 GB
Длительность: 1h 30mn
Навигация по главам: Нет
Bitrate (все потоки): 2 178 Kbps
Название: Wolf.Warriors.2015.L1.WEBRip.1400MB
Тип потока: Видео
Длительность: 01:30:02
Кодек: MPEG-4 Visual
Кодек/Профиль: Advanced Simple@L5
Кодек/ID: XVID
Размеры изображения: 720 x 304 (2.35:1)
Частота кадров: 23.976 fps
Размер потока: 1.12 GiB (82%)
Битрейт: 1 779 Kbps
Библиотека кодирования: XviD 73
Цветовое пространство: YUV
Тип развёртки: Progressive
Глубина: 8 bits
Тип потока: Звук #1
Длительность: 01:30:02.560
Кодек: AC-3
Кодек/ID: 2000
Частота дискретизации: 48.0 KHz
Каналов: 2 channels
Битрейт: 192 Kbps
Битрейт/тип: Constant
Размер потока: 124 MiB (9%)
Глубина: 16 bits
Метод сжатия: Lossy
Тип потока: Звук #2
Длительность: 01:30:02.560
Кодек: AC-3
Кодек/ID: 2000
Частота дискретизации: 48.0 KHz
Каналов: 2 channels
Битрейт: 192 Kbps
Битрейт/тип: Constant
Размер потока: 124 MiB (9%)
Глубина: 16 bits
Метод сжатия: Lossy

Скриншоты





Последний раз редактировалось: Davron1402 (2015-06-05 20:58), всего редактировалось 2 раз(а)

Создавать темы 04-Июн-2015 23:03

[Профиль]  [ЛС] 

Davron1402 ®

Стаж: 3 года 9 месяцев

Сообщений: 136

Симпатии: 122

Кино супер просто слов нет

Создавать темы 05-Июн-2015 17:03

[Профиль]  [ЛС] 
Показать сообщения:    
Ответить на тему

Текущее время: 19-Окт 17:51

Часовой пояс: UTC + 5



Вы не можете начинать темы
Вы не можете отвечать на сообщения
Вы не можете редактировать свои сообщения
Вы не можете удалять свои сообщения
Вы не можете голосовать в опросах
Вы не можете прикреплять файлы к сообщениям
Вы не можете скачивать файлы