Однажды на Диком Западе / C'era una volta il West (Серджио Леоне / Sergio Leone) [1968, Италия, США, драма, вестерн, HDRip] (MVO) (Sub Eng + Original Eng)

Ответить на тему
 

Cheburashka ®

Стаж: 5 лет 7 месяцев

Сообщений: 54

Симпатии: 41

Однажды на Диком Западе / C'era una volta il West
Страна: Италия, США
Жанр: драма, вестерн
Год выпуска: 1968
Продолжительность: 02:46:02
Перевод: Профессиональный (многоголосый закадровый)
Cубтитры: английские
Оригинальная аудиодорожка: английский-Режиссер: Серджио Леоне / Sergio Leone
В ролях: Чарльз Бронсон, Генри Фонда, Клаудия Кардинале, Джейсон Робардс, Габриэле Ферцетти, Паоло Стоппа, Вуди Строуд, Джек Илэм, Кинен Уинн, Фрэнк Вулф-Описание: Молодая вдова отказывается продать ферму дельцу, задумавшему проложить по этой земле железную дорогу, и тогда он заказывает ее убийство, нанимая лучшего на Диком Западе стрелка. На защиту красавицы встают известный бандит Шайен и таинственный бродяга. Трое сильных мужчин сойдутся в смертельном хороводе, выхода из которого может и не быть.-Качество видео: HDRip
Формат видео: MKV
Видео: 720x304 (2.37:1), 23.976 fps, XviD build 65 ~1120 kbps avg, 0.21 bit/pixel
Аудио 1: 48 KHz, 128 Kbps, 2 channels | SomeWax
Аудио 2: 48 KHz, 128 Kbps, 2 channels | английский
Аудио 3: 48 KHz, 128 Kbps, 2 channels | Василий Горчаков (поздний перевод)
Аудио 4: 48 KHz, 128 Kbps, 2 channels | Video Biz
Аудио 5: 48 KHz, 128 Kbps, 2 channels | Леонид Володарский

MediaInfo

General
Unique ID : 203041712340494388330320656681400344515 (0x98C0694FE9A9C95E90E8444585211FC3)
Complete name : H:\Кино_1980_2000\Odnazhdy.na.Dikom.Zapade.1968.HDRip..mkv
Format : Matroska
Format version : Version 2
File size : 2.04 GiB
Duration : 2h 46mn
Overall bit rate : 1 762 Kbps
Encoded date : UTC 2015-06-04 23:09:42
Writing application : mkvmerge v5.4.0 ('Piper') built on Mar 10 2012 13:34:39
Writing library : libebml v1.2.3 + libmatroska v1.3.0
Video
ID : 1
Format : MPEG-4 Visual
Format profile : Advanced [email protected]
Format settings, BVOP : Yes
Format settings, QPel : No
Format settings, GMC : No warppoints
Format settings, Matrix : Custom
Codec ID : V_MS/VFW/FOURCC / XVID
Codec ID/Hint : XviD
Duration : 2h 46mn
Bit rate : 1 087 Kbps
Width : 720 pixels
Height : 304 pixels
Display aspect ratio : 2.35:1
Frame rate mode : Constant
Frame rate : 23.976 fps
Color space : YUV
Chroma subsampling : 4:2:0
Bit depth : 8 bits
Scan type : Progressive
Compression mode : Lossy
Bits/(Pixel*Frame) : 0.207
Stream size : 1.26 GiB (62%)
Writing library : XviD 65
Default : Yes
Forced : No
Audio #1
ID : 2
Format : MPEG Audio
Format version : Version 1
Format profile : Layer 3
Mode : Joint stereo
Muxing mode : Header stripping
Codec ID : A_MPEG/L3
Codec ID/Hint : MP3
Duration : 2h 46mn
Bit rate mode : Constant
Bit rate : 128 Kbps
Channel(s) : 2 channels
Sampling rate : 48.0 KHz
Compression mode : Lossy
Stream size : 152 MiB (7%)
Language : Russian
Default : Yes
Forced : No
Audio #2
ID : 3
Format : MPEG Audio
Format version : Version 1
Format profile : Layer 3
Mode : Joint stereo
Muxing mode : Header stripping
Codec ID : A_MPEG/L3
Codec ID/Hint : MP3
Duration : 2h 46mn
Bit rate mode : Constant
Bit rate : 128 Kbps
Channel(s) : 2 channels
Sampling rate : 48.0 KHz
Compression mode : Lossy
Stream size : 152 MiB (7%)
Language : English
Default : No
Forced : No
Audio #3
ID : 4
Format : MPEG Audio
Format version : Version 1
Format profile : Layer 3
Mode : Joint stereo
Mode extension : MS Stereo
Muxing mode : Header stripping
Codec ID : A_MPEG/L3
Codec ID/Hint : MP3
Duration : 2h 46mn
Bit rate mode : Constant
Bit rate : 128 Kbps
Channel(s) : 2 channels
Sampling rate : 48.0 KHz
Compression mode : Lossy
Stream size : 152 MiB (7%)
Title : Gorchakov.pozdniy
Language : Russian
Default : No
Forced : No
Audio #4
ID : 5
Format : MPEG Audio
Format version : Version 1
Format profile : Layer 3
Mode : Joint stereo
Muxing mode : Header stripping
Codec ID : A_MPEG/L3
Codec ID/Hint : MP3
Duration : 2h 46mn
Bit rate mode : Constant
Bit rate : 128 Kbps
Channel(s) : 2 channels
Sampling rate : 48.0 KHz
Compression mode : Lossy
Stream size : 152 MiB (7%)
Title : Video.Biz
Language : Russian
Default : No
Forced : No
Audio #5
ID : 6
Format : MPEG Audio
Format version : Version 1
Format profile : Layer 3
Mode : Joint stereo
Muxing mode : Header stripping
Codec ID : A_MPEG/L3
Codec ID/Hint : MP3
Duration : 2h 46mn
Bit rate mode : Constant
Bit rate : 128 Kbps
Channel(s) : 2 channels
Sampling rate : 48.0 KHz
Compression mode : Lossy
Stream size : 152 MiB (7%)
Title : Volodarskiy
Language : Russian
Default : No
Forced : No

Скриншоты

Создавать темы 05-Июн-2015 05:38

[Профиль]  [ЛС] 

Топик был перенесен из форума Фильмы до 2010 в форум HD-AVC
LUKA

Создавать темы 05-Июн-2015 20:04

 
Показать сообщения:    
Ответить на тему

Текущее время: 25-Сен 09:22

Часовой пояс: UTC + 5



Вы не можете начинать темы
Вы не можете отвечать на сообщения
Вы не можете редактировать свои сообщения
Вы не можете удалять свои сообщения
Вы не можете голосовать в опросах
Вы не можете прикреплять файлы к сообщениям
Вы не можете скачивать файлы