Одной левой (Армен Ананикян, Виталий Рейнгеверц) [2015, комедия, WEB-DLRip, Лицензия]

Ответить на тему
 

atgerkin ®

Стаж: 6 лет 10 месяцев

Сообщений: 247

Симпатии: 78

Одной левой- Жанр: комедия
Год выпуска: 2015
Продолжительность: 01:19:00
Перевод: Оригинал [iTunes]-Режиссёр: Армен Ананикян, Виталий Рейнгеверц-В ролях: Дмитрий Нагиев, Полина Гагарина, Константин Крюков, Михаил Галустян, Ян Цапник, Роман Ладнев, Константин Юшкевич, Дарья Храмцова, Наталья Костенева, Армен Ананикян-Описание: Макс - успешный скульптор. Он убежденный холостяк. У него нет отбоя от девушек и выгодных заказов. Привычный ход жизни нарушает собственная правая рука Макса. Она перестает слушаться его и ведет себя, как рука избалованной девушки. Друзья, клиенты и поклонницы думают, что Макс сошел с ума. Но причина не в этом, в его руку вселилась душа незнакомки. Справится ли герой одной левой?-Доп. информация:
 
-Качество видео: WEB-DLRip
Формат видео: AVI-Видео: XviD, 2080 kb/s, 720x400
Аудио: AC3, 384 kb/s (6 ch)

MediaInfo

Общее
Полное имя : Odnoy.Levoy.2015.O.WEB-DLRip.1400MB.avi
Формат : AVI
Формат/Информация : Audio Video Interleave
Размер файла : 1,37 Гбайт
Продолжительность : 1 ч. 19 м.
Общий поток : 2474 Кбит/сек
Программа кодирования : VirtualDubMod 1.5.10.3 | www.virtualdub-fr.org || (build 2550/release)
Библиотека кодирования : VirtualDubMod build 2550/release
Видео
Идентификатор : 0
Формат : MPEG-4 Visual
Профиль формата : Advanced [email protected]
Параметр BVOP формата : 2
Параметр QPel формата : Нет
Параметр GMC формата : Без точки перехода
Параметр матрицы формата : Default (MPEG)
Идентификатор кодека : XVID
Идентификатор кодека/Подсказка : XviD
Продолжительность : 1 ч. 19 м.
Битрейт : 2080 Кбит/сек
Ширина : 720 пикселей
Высота : 400 пикселей
Соотношение сторон : 16:9
Частота кадров : 25,000 кадров/сек
Цветовое пространство : YUV
Субдискретизация насыщенности : 4:2:0
Битовая глубина : 8 бит
Тип развёртки : Прогрессивная
Метод сжатия : С потерями
Бит/(Пиксели*Кадры) : 0.289
Размер потока : 1,15 Гбайт (84%)
Библиотека кодирования : XviD 1.2.1 (UTC 2008-12-04)
Аудио
Идентификатор : 1
Формат : AC-3
Формат/Информация : Audio Coding 3
Расширение режима : CM (complete main)
Параметр Endianness формата : Big
Идентификатор кодека : 2000
Продолжительность : 1 ч. 19 м.
Вид битрейта : Постоянный
Битрейт : 384 Кбит/сек
Каналы : 6 каналов
Расположение каналов : Front: L C R, Side: L R, LFE
Частота : 48,0 КГц
Битовая глубина : 16 бит
Метод сжатия : С потерями
Размер потока : 217 Мбайт (16%)
Выравнивание : Разделение по промежуткам
Продолжительность промежутка : 40 мс. (1,00 видеокадр)
Время предзагрузки промежутка : 500 мс.

Скриншот c названием фильма

Скриншоты

Скриншоты:


Последний раз редактировалось: atgerkin (2015-06-05 20:21), всего редактировалось 1 раз

Создавать темы 05-Июн-2015 14:17

[Профиль]  [ЛС] 

Каротажник

Стаж: 4 года

Сообщений: 195

Симпатии: 211

atgerkin, скриншоты должны быть под спойлер

Создавать темы 05-Июн-2015 20:03

[Профиль]  [ЛС] 

atgerkin ®

Стаж: 6 лет 10 месяцев

Сообщений: 247

Симпатии: 78

939251atgerkin, скриншоты должны быть под спойлер
Спрятал

Создавать темы 05-Июн-2015 20:22

[Профиль]  [ЛС] 

Shipa

Стаж: 5 лет 4 месяца

Сообщений: 3

... а где кнопочка торрента?

Создавать темы 15-Июл-2015 19:50

[Профиль]  [ЛС] 

-OdilmaX-

Стаж: 2 года 7 месяцев

Сообщений: 425

Симпатии: 854

944316... а где кнопочка торрента?
+

Создавать темы 15-Июл-2015 21:03

[Профиль]  [ЛС] 
Показать сообщения:    
Ответить на тему

Текущее время: 19-Окт 19:42

Часовой пояс: UTC + 5



Вы не можете начинать темы
Вы не можете отвечать на сообщения
Вы не можете редактировать свои сообщения
Вы не можете удалять свои сообщения
Вы не можете голосовать в опросах
Вы не можете прикреплять файлы к сообщениям
Вы не можете скачивать файлы