Дом страха / Demonic (Уилл Кэнон) [2015, США, Великобритания, ужасы, триллер, HDRip][2015, ужасы, триллер, HDRip]

Ответить на тему
 

Shaxbos ®

Стаж: 2 года 4 месяца

Сообщений: 2

Симпатии: 11

Дом страха / Demonic
Страна: США, Великобритания
Жанр: ужасы, триллер
Год выпуска: 2015
Продолжительность: 01:23:31
Перевод: Любительский (двухголосый закадровый)
Режиссер: Уилл Кэнон
В ролях: Мария Белло, Фрэнк Грилло, Коуди Хорн, Дастин Миллиган, Меган Парк, Скотт Мехловиц, Аарон Ю, Алекс Гуд, Эштон Ли, Терренс Розмор
Описание: Пятеро студентов найдены мертвыми в заброшенном доме. Расследование возглавили детектив Марк Льюис и криминальный психолог Элизабет Клайн, которые начали с допроса одного из подозреваемых, молодого парня Джона Эскота. Он попытается объяснить им, что же случилось на самом деле. Как оказалось — все погибшие охотились на привидений и были падки на всякую паранормальщину, жертвой которой в один прекрасный момент стали сами. Дом, в который они пришли, является вратами в ад.
Качество видео: HDRip
Формат видео: AVI
Видео: XviD, 1915 kbps, 720x304
Аудио: RU: AC3, 2 ch, 192 kbps
Аудио 2:EN: AC3, 6 ch, 384 kbps

MediaInfo

General
Complete name : C:\Documents and Settings\Администратор\Мои документы\Downloads\Дом Страха.avi
Format : AVI
Format/Info : Audio Video Interleave
File size : 1.46 GiB
Duration : 1h 23mn
Overall bit rate : 2 505 Kbps
Writing application : VirtualDubMod 1.5.10.3 | www.virtualdub-fr.org || (build 2550/release)
Writing library : VirtualDubMod build 2550/release
Video
ID : 0
Format : MPEG-4 Visual
Format profile : Advanced [email protected]
Format settings, BVOP : Yes
Format settings, QPel : No
Format settings, GMC : No warppoints
Format settings, Matrix : Default (H.263)
Codec ID : XVID
Codec ID/Hint : XviD
Duration : 1h 23mn
Bit rate : 1 915 Kbps
Width : 720 pixels
Height : 304 pixels
Display aspect ratio : 2.35:1
Frame rate : 23.976 fps
Color space : YUV
Chroma subsampling : 4:2:0
Bit depth : 8 bits
Scan type : Progressive
Compression mode : Lossy
Bits/(Pixel*Frame) : 0.365
Stream size : 1.12 GiB (76%)
Writing library : XviD 66
Audio #1
ID : 1
Format : AC-3
Format/Info : Audio Coding 3
Mode extension : CM (complete main)
Format settings, Endianness : Big
Codec ID : 2000
Duration : 1h 23mn
Bit rate mode : Constant
Bit rate : 192 Kbps
Channel count : 2 channels
Channel positions : Front: L R
Sampling rate : 48.0 KHz
Bit depth : 16 bits
Compression mode : Lossy
Stream size : 115 MiB (8%)
Alignment : Split accross interleaves
Interleave, duration : 42 ms (1.00 video frame)
Interleave, preload duration : 500 ms
Audio #2
ID : 2
Format : AC-3
Format/Info : Audio Coding 3
Mode extension : CM (complete main)
Format settings, Endianness : Big
Codec ID : 2000
Duration : 1h 23mn
Bit rate mode : Constant
Bit rate : 384 Kbps
Channel count : 6 channels
Channel positions : Front: L C R, Side: L R, LFE
Sampling rate : 48.0 KHz
Bit depth : 16 bits
Compression mode : Lossy
Stream size : 229 MiB (15%)
Alignment : Split accross interleaves
Interleave, duration : 42 ms (1.00 video frame)
Interleave, preload duration : 500 ms

Скриншоты






Последний раз редактировалось: Shaxbos (2015-06-06 14:12), всего редактировалось 25 раз(а)

Создавать темы 05-Июн-2015 14:34

[Профиль]  [ЛС] 

DXgame

Стаж: 5 лет

Сообщений: 128

Симпатии: 144

Shaxbos, Постер в нашу галерею -> http://img.tas-ix.net/
В названии файла уберите название постороннего ресурса. Перезалейте торрент файл.
И поправьте скриншоты, допишите теги:
[img] прямая ссылка на изображение [/img]

Создавать темы 05-Июн-2015 15:00

[Профиль]  [ЛС] 

Machine

Стаж: 5 лет 2 месяца

Сообщений: 209

Симпатии: 68

Shaxbos, По поводу торрент файла я промолчу)) А вот по поводу постера, вообще-то это постер из фильма Дом страха / Cubbyhouse 2001 года выпуска... Вот его надо заменить..

Создавать темы 05-Июн-2015 15:27

[Профиль]  [ЛС] 

Shaxbos ®

Стаж: 2 года 4 месяца

Сообщений: 2

Симпатии: 11

Исправил !

Создавать темы 05-Июн-2015 20:35

[Профиль]  [ЛС] 
Показать сообщения:    
Ответить на тему

Текущее время: 22-Окт 16:48

Часовой пояс: UTC + 5



Вы не можете начинать темы
Вы не можете отвечать на сообщения
Вы не можете редактировать свои сообщения
Вы не можете удалять свои сообщения
Вы не можете голосовать в опросах
Вы не можете прикреплять файлы к сообщениям
Вы не можете скачивать файлы