Национальная трасса 10 / NH 10 (Навдип Сингх) [2015, Индия, Триллер, WebRip] (DVO)

Ответить на тему
 

Davron1402 ®

Стаж: 3 года 10 месяцев

Сообщений: 136

Симпатии: 122

Национальная трасса 10 / NH 10- Страна: Индия
Жанр: Триллер
Год выпуска: 2015
Продолжительность: 01:47:37
Перевод: Любительский (двухголосый закадровый)
Cубтитры: нет
Режиссер: Навдип Сингх
В ролях: Анушка Шарма, Нил Бхупалам, Даршан Кумар, Рави Джанкал, Дипти Навал, Таня Пурохит Добхал-Описание: Молодая семейная пара Мира и Арджун решают устроить себе второй медовый месяц, поехав на выходные за город. По дороге, они становятся свидетелями жестокой разборки между братом и сестрой. Арджун решает заступиться за незнакомку, даже не ведая о том, что наткнётся на сцену убийства чести кучей отморозков. Напуганные до смерти супруги бросаются в бега, но от зверей не так уж и легко спрятаться. Хотя кто знает, охотник порой может и сам превратиться в добычу...-Качество видео: WebRip
Формат видео: mp4 (MPEG-4)
Видео: AVC, 640 x 480 (4:3), 29.970 fps, 783 Kbps
Аудио: AAC, 44.1 KHz, 2 channels, 144 Kbps- 

MediaInfo

Имя файла: National.Trassa.2015.mp4
Формат файла: .mp4 (MPEG-4)
Размер файла: 712.67 MB
Длительность: 1h 47mn
Навигация по главам: Нет
Bitrate (все потоки): 926 Kbps
Тип битрейта (все потоки): Variable
Тип потока: Видео
Длительность: 01:47:37
Кодек: AVC
Кодек/Профиль: [email protected]
Кодек/ID: avc1
Кодек/CABAC: No
Кодек/ReFrames: 1 frame
Размеры изображения: 640 x 480 (4:3)
Частота кадров: 29.970 fps
Размер потока: 600 MiB (84%)
Битрейт: 783 Kbps
Цветовое пространство: YUV
Тип развёртки: Progressive
Глубина: 8 bits
Тип потока: Звук #1
Длительность: 01:47:37.493
Кодек: AAC
Кодек/Профиль: LC
Кодек/ID: 40
Частота дискретизации: 44.1 KHz
Каналов: 2 channels
Битрейт: 144 Kbps
Битрейт/тип: Variable
Размер потока: 109 MiB (15%)
Метод сжатия: Lossy

Скриншоты




Создавать темы 05-Июн-2015 20:41

[Профиль]  [ЛС] 
Показать сообщения:    
Ответить на тему

Текущее время: 20-Ноя 12:50

Часовой пояс: UTC + 5



Вы не можете начинать темы
Вы не можете отвечать на сообщения
Вы не можете редактировать свои сообщения
Вы не можете удалять свои сообщения
Вы не можете голосовать в опросах
Вы не можете прикреплять файлы к сообщениям
Вы не можете скачивать файлы