Отрочество / Boyhood (Ричард Линклейтер/Richard Linklater) [2014, США, Драма, BDRip] (Dub)

Ответить на тему
 

Version21 ®

Стаж: 2 года 4 месяца

Сообщений: 14

Симпатии: 1

Отрочество / Boyhood
Страна: США
Жанр: Драма
Год выпуска: 2014
Продолжительность: 2:45:38
Перевод: Профессиональный (дублированный)
Cубтитры: нет
Режиссер: Ричард Линклейтер/Richard Linklater
В ролях: Эллар Колтрейн, Патриция Аркетт, Итэн Хоук, Элайджа Смит, Лорелей Линклэйтер, Стивен Честер Принц, Бонни Кросс, Либби Виллари, Марко Перелья, Джэми Ховард
Описание: Многолетний проект позволит проследить развитие реального человека с момента рождения. Уникальный шанс увидеть год за годом взросление ребенка, жизнь его родителей и изменения окружающего мира в целом.
Качество видео: BDRip
Формат видео: AVI
Видео: 656x352,23.95fps,1262kbps
Аудио: 48.0 Khz,stereo 128kbps

MediaInfo

Общее
Полное имя : D:\Otrochestvo_2014_BDRip_Line.avi
Формат : AVI
Формат/Информация : Audio Video Interleave
Размер файла : 1,46 Гбайт
Продолжительность : 2 ч. 45 м.
Общий поток : 1262 Кбит/сек
Программа кодирования : VirtualDubMod 1.5.10.3 | www.virtualdub-fr.org || (build 2550/release)
Библиотека кодирования : VirtualDubMod build 2550/release
Видео
Идентификатор : 0
Формат : MPEG-4 Visual
Профиль формата : Advanced [email protected]
Параметр BVOP формата : 1
Параметр QPel формата : Нет
Параметр GMC формата : Без точки перехода
Параметр матрицы формата : Выборочная
Идентификатор кодека : XVID
Идентификатор кодека/Подсказка : XviD
Продолжительность : 2 ч. 45 м.
Битрейт : 1125 Кбит/сек
Ширина : 656 пикселей
Высота : 352 пикселя
Соотношение сторон : 1,85:1
Частота кадров : 23,976 кадра/сек
Цветовое пространство : YUV
Субдискретизация насыщенности : 4:2:0
Битовая глубина : 8 бит
Тип развёртки : Прогрессивная
Метод сжатия : С потерями
Бит/(Пиксели*Кадры) : 0.203
Размер потока : 1,30 Гбайт (89%)
Библиотека кодирования : XviD 73
Аудио
Идентификатор : 1
Формат : MPEG Audio
Версия формата : Version 1
Профиль формата : Layer 3
Идентификатор кодека : 55
Идентификатор кодека/Подсказка : MP3
Продолжительность : 2 ч. 45 м.
Вид битрейта : Постоянный
Битрейт : 128 Кбит/сек
Каналы : 2 канала
Частота : 48,0 КГц
Метод сжатия : С потерями
Размер потока : 152 Мбайт (10%)
Выравнивание : Соединение по промежуткам
Продолжительность промежутка : 42 мс. (1,00 видеокадр)
Время предзагрузки промежутка : 504 мс.
Библиотека кодирования : LAME3.99r
Настройки программы : -m s -V 4 -q 2 -lowpass 17 -b 128

Скриншоты





Создавать темы 06-Июн-2015 03:05

[Профиль]  [ЛС] 
Показать сообщения:    
Ответить на тему

Текущее время: 20-Сен 19:56

Часовой пояс: UTC + 5



Вы не можете начинать темы
Вы не можете отвечать на сообщения
Вы не можете редактировать свои сообщения
Вы не можете удалять свои сообщения
Вы не можете голосовать в опросах
Вы не можете прикреплять файлы к сообщениям
Вы не можете скачивать файлы