Остаться в живых / Stay Alive (Уильям Брент Белл) [2006, США, ужасы, триллер, DVDRip] [Режиссерская версия] (MVO)

Ответить на тему
 

Cheburashka ®

Стаж: 5 лет 10 месяцев

Сообщений: 54

Симпатии: 41

Остаться в живых / Stay Alive
«Больше нет границ между игрой, легендой и реальностью»
Страна: США
Жанр: ужасы, триллер
Год выпуска: 2006
Продолжительность: 01:36:42
Перевод: Профессиональный (многоголосый закадровый)-Режиссер: Уильям Брент Белл-В ролях: Джон Фостер, Сэмэр Армстронг, Фрэнки Мьюниз, София Буш, Джимми Симпсон, Адам Голдберг, Мило Вентимилья, Эйприл Вуд, Синтия ЛеБланк, Элтон ЛеБланк-Описание: Группа подростков из Нью-Орлеана просто помешана на пугающей ролевой видео-игре — «Остаться в живых». Суть игры — разыгрывать леденящие душу истории из жизни таинственной аристократки, которая жила в 17 веке и носила прозвище «Кровавая графиня».
Неожиданно один за другим подростки начинают погибать, причем убивают их тем же изощренным способом, что и их персонажей. Жестокий вымысел все теснее и теснее переплетается с реальностью… Ребятам нужно успеть победить порочную и беспощадную «Кровавую графиню». Им нужно остаться в живых…-
Качество видео: DVDRip
Формат видео: AVI
Видео: 704x304 (2.32:1), 25 fps, XviD build 73 ~1701 kbps avg, 0.32 bit/pixel
Аудио: 48 kHz, AC3 Dolby Digital, 3/2 (L,C,R,l,r) + LFE ch, ~448 kbps

MediaInfo

General
Complete name : H:\Кино_2000-2010\Ostatsya_v_zhivyh_2006_DVDRip.avi
Format : AVI
Format/Info : Audio Video Interleave
File size : 1.46 GiB
Duration : 1h 36mn
Overall bit rate : 2 159 Kbps
Writing application : VirtualDubMod 1.5.10.3 | www.virtualdub-fr.org || (build 2550/release)
Writing library : VirtualDubMod build 2550/release
Video
ID : 0
Format : MPEG-4 Visual
Format profile : Advanced [email protected]
Format settings, BVOP : 1
Format settings, QPel : No
Format settings, GMC : No warppoints
Format settings, Matrix : Custom
Codec ID : XVID
Codec ID/Hint : XviD
Duration : 1h 36mn
Bit rate : 1 702 Kbps
Width : 704 pixels
Height : 304 pixels
Display aspect ratio : 2.35:1
Frame rate : 25.000 fps
Color space : YUV
Chroma subsampling : 4:2:0
Bit depth : 8 bits
Scan type : Progressive
Compression mode : Lossy
Bits/(Pixel*Frame) : 0.318
Stream size : 1.15 GiB (79%)
Writing library : XviD 73
Audio
ID : 1
Format : AC-3
Format/Info : Audio Coding 3
Mode extension : CM (complete main)
Format settings, Endianness : Big
Codec ID : 2000
Duration : 1h 36mn
Bit rate mode : Constant
Bit rate : 448 Kbps
Channel(s) : 6 channels
Channel positions : Front: L C R, Side: L R, LFE
Sampling rate : 48.0 KHz
Bit depth : 16 bits
Compression mode : Lossy
Delay relative to video : 500ms
Stream size : 310 MiB (21%)
Alignment : Split accross interleaves
Interleave, duration : 40 ms (1.00 video frame)
Interleave, preload duration : 500 ms

Скриншоты

Создавать темы 06-Июн-2015 13:00

[Профиль]  [ЛС] 

krocki

Стаж: 2 года 7 месяцев

Сообщений: 57

Симпатии: 1

Давно смотрел по телеку!...Фильм интересный...

Создавать темы 06-Июн-2015 23:27

[Профиль]  [ЛС] 
Показать сообщения:    
Ответить на тему

Текущее время: 14-Дек 05:18

Часовой пояс: UTC + 5



Вы не можете начинать темы
Вы не можете отвечать на сообщения
Вы не можете редактировать свои сообщения
Вы не можете удалять свои сообщения
Вы не можете голосовать в опросах
Вы не можете прикреплять файлы к сообщениям
Вы не можете скачивать файлы