Ганнибал / Hannibal / Сезон 3 / Серия 1-13 (13) [2015, детектив, криминал, драма, HDTVRip] MVO (AlexFilm) + Original

Ответить на тему
 

Mamutov ®

Стаж: 4 года 11 месяцев

Сообщений: 255

Симпатии: 144

Ганнибал / Hannibal
Год выпуска: 2015
Страна: США
Жанр: детектив, криминал, драма
Продолжительность: ~44 мин
Перевод: Профессиональный (многоголосый закадровый)(AlexFilm)
Режиссёр: Гильермо Наварро, Майкл Раймер, Дэвид Слэйд
В ролях: Мадс Миккельсен, Хью Дэнси, Каролин Давернас, Лара Жан Чоростецки, Аарон Абрамс, Лоренс Фишбёрн, Эттьенн Парк, Скотт Томпсон, Торианна Ли, Демор Барнс
Описание: Уилл Грэм — одаренный профайлер, который вместе с ФБР разыскивает серийного убийцу. Уникальный способ мышления Грэма дает ему удивительную способность глубоко проникаться чувствами другого человека, даже психопата. Он может понять, что ими движет. Но когда ум преследуемого убийцы оказывается слишком сложным, он прибегает к помощи доктора Лектера, одного из ведущих психиатрических умов в стране.
Доп. информация:-Релиз:
Перевод: Константин Кривоногов
Монтаж и сведение звука: Михаил Шорыгин
Роли озвучивали:
Татьяна Манетина
Пётр Иващенко (Гланц)
Михаил Суслов
Константин Погодаев
Владимир Курдов

Качество: HDTVRip
Формат: AVI
Видео кодек: XviD
Видео: 720x400 (1.80:1), 23.976 fps, XviD ~1400 kbps avg, 0.19 bit/pixel
Аудио: Rus: 48 kHz, MPEG Layer 3, 2 ch, ~128.00 kbps avg
Аудио: Eng: 48 kHz, MPEG Layer 3, 2 ch, ~128.00 kbps avg
 

MediaInfo

Format : AVI
Format/Info : Audio Video Interleave
File size : 842 MiB
Duration : 42mn 38s
Overall bit rate : 2 759 Kbps
Movie name : Hannibal @ AlexFilm
Writing application : VirtualDubMod 1.5.10.2 (build 2540/release)
Writing library : VirtualDubMod build 2540/release
Video
ID : 0
Format : MPEG-4 Visual
Format profile : Advanced [email protected]
Format settings, BVOP : No
Format settings, QPel : No
Format settings, GMC : No warppoints
Format settings, Matrix : Default (H.263)
Codec ID : XVID
Codec ID/Hint : XviD
Duration : 42mn 38s
Bit rate : 2 489 Kbps
Width : 720 pixels
Height : 400 pixels
Display aspect ratio : 16:9
Frame rate : 23.976 fps
Color space : YUV
Chroma subsampling : 4:2:0
Bit depth : 8 bits
Scan type : Progressive
Compression mode : Lossy
Bits/(Pixel*Frame) : 0.360
Stream size : 759 MiB (90%)
Writing library : XviD 73
Audio #1
ID : 1
Format : MPEG Audio
Format version : Version 1
Format profile : Layer 3
Mode : Joint stereo
Mode extension : MS Stereo
Codec ID : 55
Codec ID/Hint : MP3
Duration : 42mn 38s
Bit rate mode : Constant
Bit rate : 128 Kbps
Channel(s) : 2 channels
Sampling rate : 48.0 KHz
Compression mode : Lossy
Stream size : 39.0 MiB (5%)
Alignment : Aligned on interleaves
Interleave, duration : 42 ms (1.00 video frame)
Interleave, preload duration : 504 ms
Title : Russian (AlexFilm)
Writing library : LAME3.90.3
Audio #2
ID : 2
Format : MPEG Audio
Format version : Version 1
Format profile : Layer 3
Mode : Joint stereo
Mode extension : MS Stereo
Codec ID : 55
Codec ID/Hint : MP3
Duration : 42mn 38s
Bit rate mode : Constant
Bit rate : 128 Kbps
Channel(s) : 2 channels
Sampling rate : 48.0 KHz
Compression mode : Lossy
Stream size : 39.0 MiB (5%)
Alignment : Aligned on interleaves
Interleave, duration : 42 ms (1.00 video frame)
Interleave, preload duration : 504 ms
Title : English
Writing library : LAME3.90.3

Скриншоты





Последний раз редактировалось: Mamutov (2015-09-06 20:10), всего редактировалось 14 раз(а)

Создавать темы 07-Июн-2015 00:03

[Профиль]  [ЛС] 

Mamutov ®

Стаж: 4 года 11 месяцев

Сообщений: 255

Симпатии: 144

2 серия

Создавать темы 15-Июн-2015 15:09

[Профиль]  [ЛС] 

Страх

Стаж: 4 года 2 месяца

Сообщений: 1131

Симпатии: 448

3 серия вышла

Создавать темы 21-Июн-2015 16:18

[Профиль]  [ЛС] 

Страх

Стаж: 4 года 2 месяца

Сообщений: 1131

Симпатии: 448

http://alexfilm.cc/viewtopic.php?t=920 откуда скачивали?) что то тут слишком большой размерчик)
А все нашел http://alexfilm.cc/viewtopic.php?t=922

Создавать темы 21-Июн-2015 16:30

[Профиль]  [ЛС] 

Mamutov ®

Стаж: 4 года 11 месяцев

Сообщений: 255

Симпатии: 144

3 серия

Создавать темы 22-Июн-2015 22:18

[Профиль]  [ЛС] 

Mamutov ®

Стаж: 4 года 11 месяцев

Сообщений: 255

Симпатии: 144

4 серия

Создавать темы 29-Июн-2015 08:14

[Профиль]  [ЛС] 

Mamutov ®

Стаж: 4 года 11 месяцев

Сообщений: 255

Симпатии: 144

5-6 серии

Создавать темы 14-Июл-2015 08:56

[Профиль]  [ЛС] 

Mamutov ®

Стаж: 4 года 11 месяцев

Сообщений: 255

Симпатии: 144

7 серия

Создавать темы 24-Июл-2015 20:54

[Профиль]  [ЛС] 

Mamutov ®

Стаж: 4 года 11 месяцев

Сообщений: 255

Симпатии: 144

8 серия

Создавать темы 26-Июл-2015 07:25

[Профиль]  [ЛС] 

Mamutov ®

Стаж: 4 года 11 месяцев

Сообщений: 255

Симпатии: 144

9 серия

Создавать темы 02-Авг-2015 14:17

[Профиль]  [ЛС] 

Mamutov ®

Стаж: 4 года 11 месяцев

Сообщений: 255

Симпатии: 144

10 серия

Создавать темы 11-Авг-2015 00:25

[Профиль]  [ЛС] 

Mamutov ®

Стаж: 4 года 11 месяцев

Сообщений: 255

Симпатии: 144

11 серия

Создавать темы 16-Авг-2015 22:02

[Профиль]  [ЛС] 

homes

Стаж: 4 года 6 месяцев

Сообщений: 11

Симпатии: 3

8,9,10 серии хэш не совпадает с предыдущим

Создавать темы 17-Авг-2015 08:04

[Профиль]  [ЛС] 

Mamutov ®

Стаж: 4 года 11 месяцев

Сообщений: 255

Симпатии: 144

12 серия

Создавать темы 23-Авг-2015 09:09

[Профиль]  [ЛС] 

sardor81

Стаж: 4 года 5 месяцев

Сообщений: 15

Симпатии: 1

11 серия воспроизводится с испорченной картинкой. Это только у меня так?

Создавать темы 23-Фев-2016 17:56

[Профиль]  [ЛС] 
Показать сообщения:    
Ответить на тему

Текущее время: 13-Дек 01:06

Часовой пояс: UTC + 5



Вы не можете начинать темы
Вы не можете отвечать на сообщения
Вы не можете редактировать свои сообщения
Вы не можете удалять свои сообщения
Вы не можете голосовать в опросах
Вы не можете прикреплять файлы к сообщениям
Вы не можете скачивать файлы