Конец Евангелиона / Shinseiki Evangelion Gekijouban: The End of Evangelion / Neon Genesis Evangelion: The End of Evangelion [Movie] [Без хардсаба] [JAP, RUS(int), SUB] [1997 г., драма, фантастика, меха, DVDRip]

Ответить на тему
 

FireHowler ®

Стаж: 4 года 5 месяцев

Сообщений: 270

Симпатии: 153

Конец Евангелиона / Shinseiki Evangelion Gekijouban: The End of Evangelion / Neon Genesis Evangelion: The End of Evangelion- Страна: Япония
Год выпуска: 1997 г.
Жанр: драма, фантастика, меха
Тип: Movie
Продолжительность: 87 минут
Режиссер: Анно Хидэаки
Студия: GAINAX-Описание: Человечество – раса незавершенных, потерянных сущностей изыскала итог своего эволюционного развития. Проект «Комплементация Человечества» приведет нас к венцу творения, объединив разрозненные сущности в единое всецелое создание, в затопившем Вселенную пламени Черной Луны. Мир будет переплавлен!
Доп. информация: Фильм представляет из себя альтернативную концовку популярного аниме-сериала «Евангелион». Дело в том, что многие зрители остались недовольны двумя последними сериями сериала, так как те в основном описывали внутренние переживания героев, и практически ничего не объясняли в сюжете. Студию завалили письмами с жалобами. После этого Хидэаки Анно принял решение сделать альтернативную концовку, ставящую точку в сюжете. Однако многие поклонники данного аниме говорят о том что это не альтернативная концовка, а единственный конец, 25 и 26 серии сериала происходят до «Конца Евангелиона». Эти серии были показаны, якобы, из-за цензуры вместо того продолжения, которое мы видим в «Конце Евангелиона». Это объясняется большим количеством кровавых сцен.
Фильм состоит из двух частей, заменяющих 25 и 26 серии оригинального сериала (англ. Air / Love is Destructive и англ. My Purest Heart for You (Sincerely Yours) / ONE MORE FINAL: I need you.). В сериале в этих сериях не было показано действия, только внутренняя борьба героев с самими собой, поэтому люди терроризировали студию «GAINAX» письмами с жалобами.-Качество: DVDRip (R2J)
Формат видео: MKV
Релиз/Автор рипа: Salender-Raws
Видео: H.264 (10bit), 1004x574 (16:9), 23.976 fps, 5.400 Kbit/s
Аудио (JAP): DTS (5.1), 16 bit, 48 KHz, 1.520 Kbit/s
Аудио (RUS): AC3 (5.1), 16bit, 48 KHz, 320 Kbit/s - озвучка от Сузаку (Е. Лурье)
Субтитры (RUS): SRT (встроенные) - Baka Voice & Вилка (они же "Аниме-клуб МФТИ")
Субтитры (RUS): SSA (встроенные) - Tata & Blast Off & Hikari
Субтитры (ENG): ASS (встроенные) - Wada-kun & Todd Perkins-

Заметка о 10-битном видео

Устаревшие декодеры/плееры воспроизводят данное видео некорректно (куча артефактов на экране) или вообще не воспроизводят (чёрный экран).
Способы решения данной проблемы: обновить декодеры/плеер и, в случае необходимости (это видео сильно нагружает процессор), компьютер .

Media Info

General
Unique ID : 250403027439658931599676308830616022003 (0xBC61DE6E568DAC128548918E0C2FEBF3)
Complete name : D:\Neon Genesis Evangelion. The end of Evangelion (1997).mkv
Format : Matroska
Format version : Version 2
File size : 4.64 GiB
Duration : 1h 29mn
Overall bit rate : 7 374 Kbps
Movie name : [Salender-Raws] Evangelion - The end of Evangelion
Encoded date : UTC 2012-08-22 20:35:25
Writing application : mkvmerge v5.2.0 ('I can't explain') built on Dec 18 2011 18:12:03
Writing library : libebml v1.2.3 + libmatroska v1.3.0
Attachements : Poster (eng).jpg / Poster (rus).jpg
Video
ID : 1
Format : AVC
Format/Info : Advanced Video Codec
Format profile : High [email protected]
Format settings, CABAC : Yes
Format settings, ReFrames : 14 frames
Codec ID : V_MPEG4/ISO/AVC
Duration : 1h 29mn
Bit rate : 5 397 Kbps
Width : 1 004 pixels
Height : 574 pixels
Display aspect ratio : 16:9
Frame rate mode : Constant
Frame rate : 23.976 fps
Color space : YUV
Chroma subsampling : 4:2:0
Bit depth : 10 bits
Scan type : Progressive
Bits/(Pixel*Frame) : 0.391
Stream size : 3.39 GiB (73%)
Title : Neon Genesis Evangelion. The end of Evangelion (1997)
Writing library : x264 core 119 r2106 07efeb4
Encoding settings : cabac=1 / ref=14 / deblock=1:-2:-2 / analyse=0x3:0x133 / me=umh / subme=9 / psy=1 / psy_rd=0.80:0.00 / mixed_ref=1 / me_range=24 / chroma_me=1 / trellis=2 / 8x8dct=1 / cqm=0 / deadzone=21,11 / fast_pskip=1 / chroma_qp_offset=-2 / threads=12 / sliced_threads=0 / nr=0 / decimate=0 / interlaced=0 / bluray_compat=0 / constrained_intra=0 / bframes=9 / b_pyramid=2 / b_adapt=2 / b_bias=0 / direct=3 / weightb=1 / open_gop=0 / weightp=2 / keyint=250 / keyint_min=23 / scenecut=40 / intra_refresh=0 / rc=crf / mbtree=0 / crf=14.5 / qcomp=0.80 / qpmin=10 / qpmax=38 / qpstep=4 / ip_ratio=1.40 / pb_ratio=1.30 / aq=1:1.00
Language : Japanese
Default : No
Forced : No
Audio #1
ID : 2
Format : DTS
Format/Info : Digital Theater Systems
Mode : 16
Format settings, Endianness : Big
Codec ID : A_DTS
Duration : 1h 29mn
Bit rate mode : Constant
Bit rate : 1 510 Kbps
Channel(s) : 6 channels
Channel positions : Front: L C R, Side: L R, LFE
Sampling rate : 48.0 KHz
Bit depth : 16 bits
Compression mode : Lossy
Stream size : 972 MiB (20%)
Title : Original
Language : Japanese
Default : Yes
Forced : No
Audio #2
ID : 3
Format : AC-3
Format/Info : Audio Coding 3
Mode extension : CM (complete main)
Format settings, Endianness : Big
Codec ID : A_AC3
Duration : 1h 29mn
Bit rate mode : Constant
Bit rate : 320 Kbps
Channel(s) : 6 channels
Channel positions : Front: L C R, Side: L R, LFE
Sampling rate : 48.0 KHz
Compression mode : Lossy
Stream size : 206 MiB (4%)
Title : Suzaku (Е. Лулье)
Language : Russian
Default : No
Forced : No
Text #1
ID : 4
Format : UTF-8
Codec ID : S_TEXT/UTF8
Codec ID/Info : UTF-8 Plain Text
Title : Baka Voice & Вилка
Language : Russian
Default : Yes
Forced : No
Text #2
ID : 5
Format : SSA
Codec ID : S_TEXT/SSA
Codec ID/Info : Sub Station Alpha
Compression mode : Lossless
Title : Tata & Blast Off & Hikari
Language : Russian
Default : No
Forced : No
Text #3
ID : 6
Format : ASS
Codec ID : S_TEXT/ASS
Codec ID/Info : Advanced Sub Station Alpha
Compression mode : Lossless
Title : Wada-kun & Todd Perkins
Language : English
Default : No
Forced : No
Menu
00:00:00.000 : :Promotion
00:01:19.000 : :НОВОЕ ПОКОЛЕНИЕ
00:07:03.000 : :Атака на MAGI
00:08:24.000 : :Приказ А-801
00:12:06.000 : :Атака на NERV
00:13:16.500 : :Запуск Евы-02
00:23:57.000 : :Я не хочу умирать!
00:24:16.000 : :Пробуждение Евы-02
00:29:59.000 : :Взрослый поцелуй
00:33:40.000 : :Кровь
00:37:10.000 : :Финал сражения
00:41:57.000 : :Титры
00:46:44.000 : :Я приношу свою благодарность...
00:46:53.000 : :КОНЕЦ ЕВАНГЕЛИОНА
00:53:14.000 : :Лилит
00:57:45.000 : :Песочница
00:59:56.000 : :Слёзы
01:02:05.000 : :Ты думаешь, что понимаешь меня?
01:03:36.000 : :Я хочу помочь тебе
01:04:58.000 : :Нет
01:12:54.500 : :Реальность
01:15:56.000 : :Финал

Скриншоты





Создавать темы 07-Июн-2015 01:22

[Профиль]  [ЛС] 
Показать сообщения:    
Ответить на тему

Текущее время: 22-Окт 00:37

Часовой пояс: UTC + 5



Вы не можете начинать темы
Вы не можете отвечать на сообщения
Вы не можете редактировать свои сообщения
Вы не можете удалять свои сообщения
Вы не можете голосовать в опросах
Вы не можете прикреплять файлы к сообщениям
Вы не можете скачивать файлы