Бархатные ручки / Mani di velluto (Франко Кастеллано / Franco Castellano, Джузеппе Моччиа / Giuseppe Moccia) [1979, Италия, мелодрама, комедия, ..., DVDRip-AVC] (MVO)

Ответить на тему
 

Cheburashka ®

Стаж: 5 лет 7 месяцев

Сообщений: 54

Симпатии: 41

Бархатные ручки / Mani di velluto Страна: Италия
Жанр: мелодрама, комедия, ...
Год выпуска: 1979
Продолжительность: 01:37:03
Перевод: Профессиональный (многоголосый закадровый)
Cубтитры: нет-Режиссер: Франко Кастеллано / Franco Castellano, Джузеппе Моччиа / Giuseppe Moccia-В ролях: Адриано Челентано /Adriano Celentano/, Элеонора Джорджи /Eleonora Giorgi/, Джон Шарп, Ольга Карлатос, Джино Сантерколе /Gino Santercole/, Момо Диттоньо, Аниа Пиерони, Джанкарло Тондинелли-Описание: Инженер Гвидо Квиллер разбогател на продаже бронированных стёкол для ювелирных магазинов, но тем самым разозлил страховые компании и грабителей. Во время погони за возлюбленной, которой он хотел вернуть забытую сумочку, у мопеда отказывают тормоза и он падает в фонтан. В это время едущая за ним на машине семья воров принимает Квиллера с сумкой в руках за дилетанта, укравшего сумочку. После падения Квиллера в фонтан семья воров, не найдя у него при себе документов, решает отвезти его к себе домой. Инженеру приходится притворяться, что он бедный вор, чтобы расположить к себе прекрасную воровку. Но однажды она узнаёт его настоящую профессию…-
Качество видео: DVDRip-AVC
Формат видео: MKV
Видео: MPEG4 Video (H264) 704x564 (251:141) 25fps Bit rate: 1 953 Kbps
Аудио: Dolby AC3 48000Hz stereo 192 Kbps

MediaInfo

General
Unique ID : 252971750236542980432544231492906904238 (0xBE50963E30EB256ABD410681BD8BEAAE)
Complete name : H:\Кино_1980_2000\Barhatnye.ruchki.1979.DVDRip-AVC_.mkv
Format : Matroska
Format version : Version 2
File size : 1.46 GiB
Duration : 1h 37mn
Overall bit rate : 2 147 Kbps
Encoded date : UTC 2013-10-17 03:16:07
Writing application : mkvmerge v6.1.0 ('Old Devil') built on Mar 4 2013 09:10:42
Writing library : libebml v1.3.0 + libmatroska v1.4.0
Video
ID : 1
Format : AVC
Format/Info : Advanced Video Codec
Format profile : High@L4.1
Format settings, CABAC : Yes
Format settings, ReFrames : 6 frames
Codec ID : V_MPEG4/ISO/AVC
Duration : 1h 37mn
Bit rate : 1 953 Kbps
Width : 704 pixels
Height : 564 pixels
Display aspect ratio : 16:9
Frame rate mode : Constant
Frame rate : 25.000 fps
Color space : YUV
Chroma subsampling : 4:2:0
Bit depth : 8 bits
Scan type : Progressive
Bits/(Pixel*Frame) : 0.197
Stream size : 1.30 GiB (89%)
Writing library : x264 core 138 r2356 a1d3d17
Encoding settings : cabac=1 / ref=6 / deblock=1:-2:-1 / analyse=0x3:0x113 / me=umh / subme=10 / psy=1 / psy_rd=1.00:0.05 / mixed_ref=1 / me_range=32 / chroma_me=1 / trellis=2 / 8x8dct=1 / cqm=0 / deadzone=21,11 / fast_pskip=0 / chroma_qp_offset=-3 / threads=3 / lookahead_threads=1 / sliced_threads=0 / nr=0 / decimate=0 / interlaced=0 / bluray_compat=0 / constrained_intra=0 / bframes=8 / b_pyramid=2 / b_adapt=2 / b_bias=0 / direct=3 / weightb=1 / open_gop=0 / weightp=2 / keyint=250 / keyint_min=25 / scenecut=40 / intra_refresh=0 / rc=2pass / mbtree=0 / bitrate=1953 / ratetol=1.0 / qcomp=0.60 / qpmin=0 / qpmax=69 / qpstep=4 / cplxblur=20.0 / qblur=0.5 / ip_ratio=1.40 / pb_ratio=1.30 / aq=1:1.00
Default : Yes
Forced : No
Audio
ID : 2
Format : AC-3
Format/Info : Audio Coding 3
Mode extension : CM (complete main)
Format settings, Endianness : Big
Codec ID : A_AC3
Duration : 1h 37mn
Bit rate mode : Constant
Bit rate : 192 Kbps
Channel(s) : 2 channels
Channel positions : Front: L R
Sampling rate : 48.0 KHz
Bit depth : 16 bits
Compression mode : Lossy
Stream size : 133 MiB (9%)
Default : Yes
Forced : No

Скриншот c названием фильма

Скриншоты

Создавать темы 07-Июн-2015 17:50

[Профиль]  [ЛС] 
Показать сообщения:    
Ответить на тему

Текущее время: 22-Сен 07:49

Часовой пояс: UTC + 5



Вы не можете начинать темы
Вы не можете отвечать на сообщения
Вы не можете редактировать свои сообщения
Вы не можете удалять свои сообщения
Вы не можете голосовать в опросах
Вы не можете прикреплять файлы к сообщениям
Вы не можете скачивать файлы