Уцелевшая / Survivor (Джеймс МакТиг) [2015, США, Великобритания, боевик, триллер,, HDRip] (VO)

Ответить на тему
 

RecobaZico ®

Стаж: 2 года 5 месяцев

Сообщений: 22

Симпатии: 94

Уцелевшая / Survivor
«His next target is now hunting him»
Страна: США, Великобритания
Жанр: боевик, триллер,
Год выпуска: 2015
Продолжительность: 01:36:28-Озвучка: Любительское (одноголосое) Хихикающий доктор по переводу Enigma
Cубтитры: нет
Режиссер: Джеймс МакТиг-В ролях: Милла Йовович, Пирс Броснан, Дилан МакДермотт, Анджела Бассетт, Джеймс Д’Арси, Антония Томас, Фрэнсис де ла Тур, Роберт Форстер, Роджер Рис, Кори Джонсон-Описание: История закручена вокруг сотрудницы Госдепартамента США, которая была отправлена своим начальством в американское посольство в Лондоне, чтобы предотвратить проникновение в страну террористов. Однако все пошло не так, как планировалось: неожиданно героиня сама становится одной из главных подозреваемых. За преступления, в которых ее обвиняют — смертная казнь, поэтому она пускается в бега, чтобы доказать свою невиновность, а также предотвратить террористическую атаку на Нью-Йорк в канун Рождества.-Качество видео: HDRip
Формат видео: AVI-Видео: XviD, 1774 kb/s, 720x304
Аудио: AC3, 384 kb/s (6 ch)

MediaInfo

Location: D:\Рекоба2015\Ucelevsha9.2015.L1.HDRip.avi
Filename: Ucelevsha9.2015.L1.HDRip.avi
File format: .avi (AVI)
File size: 1.46 GB
Duration: 1h 36mn
Navigate by chapters: Nope
Bitrate (all streams): 2 168 Kbps
...with: VirtualDubMod 1.5.10.2 (build 2540/release)
...by using: VirtualDubMod build 2540/release
Title: Ucelevsha9.2015.L1.HDRip
Stream type: Video
Duration: 01:36:27
Codec: MPEG-4 Visual
Codec Profile: Advanced [email protected]
Codec ID: XVID
Video Size: 720 x 304 (2.35:1)
Frame rate: 23.976 fps
Stream size: 1.20 GiB (82%)
Bitrate: 1 775 Kbps
Codec library: XviD 1.2.1 (UTC 2008-12-04)
Colorspace: YUV
Scantype: Progressive
Bitdepth: 8 bits
Stream type: Audio #1
Duration: 01:36:22.992
Codec: AC-3
Codec ID: 2000
Samplerate: 48.0 KHz
Channels: 6 channels
Bitrate: 384 Kbps
Bitrate/Mode: Constant
Stream size: 265 MiB (18%)
Bitdepth: 16 bits
Compression mode: Lossy

Скриншот c названием фильма

Скриншоты



Создавать темы 08-Июн-2015 08:25

[Профиль]  [ЛС] 

axeman

Стаж: 4 года 11 месяцев

Сообщений: 380

Симпатии: 50

Что за качество не HDrip (другие лучше) и звук тихий тоже смешанный оригиналом

Создавать темы 09-Июн-2015 14:43

[Профиль]  [ЛС] 

NurUzbek

Стаж: 2 года 5 месяцев

Сообщений: 18

Симпатии: 14

чё скорости нету а? дайте сид скорость парни

Создавать темы 09-Июн-2015 20:01

[Профиль]  [ЛС] 
Показать сообщения:    
Ответить на тему

Текущее время: 22-Окт 00:17

Часовой пояс: UTC + 5



Вы не можете начинать темы
Вы не можете отвечать на сообщения
Вы не можете редактировать свои сообщения
Вы не можете удалять свои сообщения
Вы не можете голосовать в опросах
Вы не можете прикреплять файлы к сообщениям
Вы не можете скачивать файлы