Вождь Белое Перо / Der Scout (Жамьянгийн Бунтар / Dshamjangijn Buntar, Конрад Петцольд / Konrad) [1983, Германия (ГДР), Монголия, драма, приключения, вестерн, ..., DVDRip] (Dub)

Ответить на тему
 

Cheburashka ®

Стаж: 5 лет 9 месяцев

Сообщений: 54

Симпатии: 41

Вождь Белое Перо / Der Scout
Страна: Германия (ГДР), Монголия
Жанр: драма, приключения, вестерн, ...
Год выпуска: 1983
Продолжительность: 01:14:49.
Перевод: Профессиональный (дублированный)
Cубтитры: нет-Режиссер: Жамьянгийн Бунтар / Dshamjangijn Buntar, Конрад Петцольд / Konrad-В ролях: Гойко Митич, Назагдорджийн Батцецег, Клаус Манхен, Милан Бели, Гизо Вайсбах, Юрген Хайнрих, Уве Еллинек-Описание: Белые продвигаются все дальше на Запад через Скалистые горы. Кавалерийские отряды загоняют племя индейцев нэз-перс («продырявленные носы») в резервацию. Чтобы индейцы не могли бежать или сопротивляться, у них реквизируют лошадей. Младший вождь Белое Перо решает вернуть племени лошадей. Он выдает себя за безобидного рыбака и позволяет солдатам арестовать себя.
Белые с удовольствием решают использовать его в качестве разведчика («скаута») и поручают ему сопровождать табун лошадей, который нужно перегнать в Форт Лапвай. Табун сопровождают всего семь солдат. Однако в их числе находится смышленый сержант, который оказывается достойным противником для Белого Пера.
Белому Перу удается перехитрить солдат и лишить армию, ослабленную другими боями, табуна лошадей.-

Качество видео: DVDRip
Формат видео: AVI
Видео: 672x400 (1.68:1), 25 fps, XviD build 73 ~2387 kbps avg, 0.35 bit/pixel
Аудио: 48 kHz, AC3 Dolby Digital, 2/0 (L,R) ch, ~224 kbps

MediaInfo

H:\Êèíî_1980_2000\Der.Scout.1983.DVDrip..avi
General
Complete name : H:\Êèíî_1980_2000\Der.Scout.1983.DVDrip..avi
Format : AVI
Format/Info : Audio Video Interleave
File size : 1.37 GiB
Duration : 1h 14mn
Overall bit rate : 2 621 Kbps
Writing application : VirtualDubMod 1.5.10.3 | www.virtualdub-fr.org || (build 2550/release)
Writing library : VirtualDubMod build 2550/release
Video #0
ID : 0
Format : MPEG-4 Visual
Format profile : Advanced [email protected]
Format settings, BVOP : 1
Format settings, QPel : No
Format settings, GMC : No warppoints
Format settings, Matrix : Default (H.263)
Codec ID : XVID
Codec ID/Hint : XviD
Duration : 1h 14mn
Bit rate : 2 387 Kbps
Width : 672 pixels
Height : 400 pixels
Display aspect ratio : 1.680
Frame rate : 25.000 fps
Color space : YUV
Chroma subsampling : 4:2:0
Bit depth : 8 bits
Scan type : Progressive
Compression mode : Lossy
Bits/(Pixel*Frame) : 0.355
Stream size : 1.25 GiB (91%)
Writing library : XviD 73
Audio #1
ID : 1
Format : AC-3
Format/Info : Audio Coding 3
Mode extension : CM (complete main)
Codec ID : 2000
Duration : 1h 14mn
Bit rate mode : Constant
Bit rate : 224 Kbps
Channel(s) : 2 channels
Channel positions : Front: L R
Sampling rate : 48.0 KHz
Bit depth : 16 bits
Compression mode : Lossy
Stream size : 120 MiB (9%)
Alignment : Split accross interleaves
Interleave, duration : 40 ms (1.00 video frame)
Interleave, preload duration : 500 ms

Скриншоты

Создавать темы 09-Июн-2015 16:50

[Профиль]  [ЛС] 
Показать сообщения:    
Ответить на тему

Текущее время: 24-Ноя 20:03

Часовой пояс: UTC + 5



Вы не можете начинать темы
Вы не можете отвечать на сообщения
Вы не можете редактировать свои сообщения
Вы не можете удалять свои сообщения
Вы не можете голосовать в опросах
Вы не можете прикреплять файлы к сообщениям
Вы не можете скачивать файлы