Атака Титанов / Shingeki no Kyojin / Attack on Titan / Вторжение Гигантов [OVA] [5 из 5] [Без хардсаба] [RUS(int)] [2013 г., Приключения, ужасы, фентези, драма, DVDRip]

Ответить на тему
 

FireHowler ®

Стаж: 4 года 5 месяцев

Сообщений: 270

Симпатии: 153

Атака Титанов / Shingeki no Kyojin OVA- Страна: Япония
Год выпуска: 2013 г.
Жанр: Приключения, ужасы, фентези, драма
Тип: OVA
Продолжительность: ~23 мин. серия
Режиссер: Араки Тэцуро
Студия: WIT-Описание: Ова, выпущенная в комплекте с ограниченным изданием 12 тома манги.
Во время очередной операции за стенами, разведотряд находит странный журнал, подписанный как "Журнал Ильзе". Он открывает им некоторые интересные подробности о гигантах.-Качество: DVDRip
Тип релиза: Без хардсаба
Формат видео: MP4
Релиз/Автор рипа: SOFCJ-Raws
Видео: H264 (8 bit), 848x480, ~1 699 kbps, 23.976 fps
Аудио: AAC, 192 kbps, 48.0 KHz, 2 ch Язык Русский (в составе контейнера) ; Озвучка: Многоголосая, закадровая Студия KANSAI

Media Info

General
Format : MPEG-4
Format profile : Base Media
Codec ID : isom
File size : 316 MiB
Duration : 23mn 20s
Overall bit rate mode : Variable
Overall bit rate : 1 895 Kbps
Encoded date : UTC 2014-11-15 14:10:32
Tagged date : UTC 2014-11-15 14:10:32
Writing application : Yamb 2.1.0.0
Video
ID : 1
Format : AVC
Format/Info : Advanced Video Codec
Format profile : [email protected]
Format settings, CABAC : Yes
Format settings, ReFrames : 6 frames
Codec ID : avc1
Codec ID/Info : Advanced Video Coding
Duration : 23mn 20s
Bit rate : 1 699 Kbps
Maximum bit rate : 12.8 Mbps
Width : 848 pixels
Height : 480 pixels
Display aspect ratio : 16:9
Frame rate mode : Constant
Frame rate : 23.976 fps
Color space : YUV
Chroma subsampling : 4:2:0
Bit depth : 8 bits
Scan type : Progressive
Bits/(Pixel*Frame) : 0.174
Stream size : 283 MiB (90%)
Writing library : x264 core 140 r2377+40 929f149 tMod [[email protected] X86]
Encoding settings : cabac=1 / ref=6 / deblock=1:1:1 / analyse=0x3:0x133 / me=umh / subme=7 / psy=1 / fade_compensate=0.00 / psy_rd=0.40:0.00 / mixed_ref=1 / me_range=32 / chroma_me=1 / trellis=2 / 8x8dct=1 / cqm=0 / deadzone=21,11 / fast_pskip=0 / chroma_qp_offset=-2 / threads=12 / lookahead_threads=3 / sliced_threads=0 / nr=0 / decimate=1 / interlaced=0 / bluray_compat=0 / constrained_intra=0 / fgo=0 / bframes=4 / b_pyramid=2 / b_adapt=2 / b_bias=0 / direct=1 / weightb=1 / open_gop=0 / weightp=2 / keyint=250 / keyint_min=23 / scenecut=40 / intra_refresh=0 / rc_lookahead=50 / rc=crf / mbtree=1 / crf=16.9000 / qcomp=0.60 / qpmin=0:0:0 / qpmax=69:69:69 / qpstep=4 / ip_ratio=1.40 / aq=1:0.60 / aq-sensitivity=10.00 / aq-factor=1.00:1.00:1.00 / aq2=0 / aq3=0
Encoded date : UTC 2013-12-09 17:44:11
Tagged date : UTC 2014-11-15 14:10:56
Color primaries : BT.709
Transfer characteristics : BT.709
Matrix coefficients : BT.709
Audio
ID : 2
Format : AAC
Format/Info : Advanced Audio Codec
Format profile : LC
Codec ID : 40
Duration : 23mn 20s
Bit rate mode : Variable
Bit rate : 192 Kbps
Maximum bit rate : 227 Kbps
Channel(s) : 2 channels
Channel positions : Front: L R
Sampling rate : 48.0 KHz
Compression mode : Lossy
Stream size : 32.1 MiB (10%)
Title : Kansai
Language : Russian
Encoded date : UTC 2014-11-15 14:10:43
Tagged date : UTC 2014-11-15 14:10:56

Скриншоты




Список серий

1. Дневник Ильсе.
2. Внезапный посетитель. Проклятие подросткового возраста.
3. Опасность.
4. Выбор без сожаления. Часть 1.
5. Выбор без сожаления. Часть 2.

Создавать темы 09-Июн-2015 22:46

[Профиль]  [ЛС] 
Показать сообщения:    
Ответить на тему

Текущее время: 21-Окт 19:07

Часовой пояс: UTC + 5



Вы не можете начинать темы
Вы не можете отвечать на сообщения
Вы не можете редактировать свои сообщения
Вы не можете удалять свои сообщения
Вы не можете голосовать в опросах
Вы не можете прикреплять файлы к сообщениям
Вы не можете скачивать файлы