Второй шанс / En chance til (Сюзанна Бир) [2014, Дания, триллер, драма, HDRip] (VO)

Ответить на тему
 

Davron1402 ®

Стаж: 3 года 11 месяцев

Сообщений: 136

Симпатии: 122

Второй шанс / En chance til- Страна: Дания
Жанр: триллер, драма
Год выпуска: 2014
Продолжительность: 01:37:55
Перевод: Одноголосый закадровый
Cубтитры: нет
Режиссер: Сюзанна Бир
В ролях: Николай Костер-Вальдау, Ульрих Томсен, Николай Ли Каас, Томас Бо Ларсен, Мария Бонневи, Питер Абер, Молли Бликст Эгелинд, Бодиль Ёргенсон, Мэй Андерсен, Оле Дюпон
Описание: История похищения усыновленного ребенка, прежде спасенного полицейским от жестокого наркомана-отца.-Качество видео: HDRip
Формат видео: AVI
Видео: MPEG-4 Visual, 720 x 304 (2.35:1), 25.000 fps, 1 730 Kbps
Аудио: AC-3, 48.0 KHz, 2 channels, 192 Kbps- 

MediaInfo

Имя файла: Vtoroj.shans.2014.L1.HDRip.avi
Формат файла: .avi (AVI)
Размер файла: 1.46 GB
Длительность: 1h 37mn
Навигация по главам: Нет
Bitrate (все потоки): 2 128 Kbps
Название: Vtoroj.shans.2014.L1.HDRip
Тип потока: Видео
Длительность: 01:37:55
Кодек: MPEG-4 Visual
Кодек/Профиль: Advanced [email protected]
Кодек/ID: XVID
Размеры изображения: 720 x 304 (2.35:1)
Частота кадров: 25.000 fps
Размер потока: 1.18 GiB (81%)
Битрейт: 1 730 Kbps
Библиотека кодирования: XviD 73
Цветовое пространство: YUV
Тип развёртки: Progressive
Глубина: 8 bits
Тип потока: Звук #1
Длительность: 01:37:55.920
Кодек: AC-3
Кодек/ID: 2000
Частота дискретизации: 48.0 KHz
Каналов: 2 channels
Битрейт: 192 Kbps
Битрейт/тип: Constant
Размер потока: 134 MiB (9%)
Глубина: 16 bits
Метод сжатия: Lossy
Тип потока: Звук #2
Длительность: 01:37:55.920
Кодек: AC-3
Кодек/ID: 2000
Частота дискретизации: 48.0 KHz
Каналов: 2 channels
Битрейт: 192 Kbps
Битрейт/тип: Constant
Размер потока: 134 MiB (9%)
Глубина: 16 bits
Метод сжатия: Lossy

Скриншоты



Создавать темы 09-Июн-2015 23:16

[Профиль]  [ЛС] 
Показать сообщения:    
Ответить на тему

Текущее время: 14-Дек 20:22

Часовой пояс: UTC + 5



Вы не можете начинать темы
Вы не можете отвечать на сообщения
Вы не можете редактировать свои сообщения
Вы не можете удалять свои сообщения
Вы не можете голосовать в опросах
Вы не можете прикреплять файлы к сообщениям
Вы не можете скачивать файлы