Дальше действовать будем мы! (2015г., Музыкальный телемарафон, SATRip)

Ответить на тему
 

Сергей74 ®

Стаж: 2 года 5 месяцев

Сообщений: 211

Симпатии: 293

Дальше действовать будем мы! (музыкальный телемарафон) Оригинальное название: Дальше действовать будем мы!
Год выпуска: 2015
Продолжительность: 02:42:16
Жанр: Музыкальный телемарафон
Выпущено: Россия, РЕН ТВ, «НАШЕ Радио»
Язык: Русский
Качество: SATRip
Видео: XviD, 1539 Кбит/с, 720x448
Аудио: AC3, 2 ch, 192 Кбит/с
Описание:
В рамках музыкального телемарафона показана полная версия эксклюзивной видеосъемки с концерта Виктора Цоя в Витебске в 1989 году. Такого нет даже у фанатов!Телеканал РЕН ТВ и «НАШЕ Радио» объявляют музыкальный телемарафон «Дальше действовать будем мы!» В апреле отцу лидера группы «Кино» поставили страшный диагноз-рак. Роберту Цою сделали сложную операцию в Израиле. Но теперь необходима реабилитация, на которую нет денег. Комната в коммунальной квартире уже продана, но этого не хватает, чтобы покрыть все расходы. Фанаты Виктора Цоя по всему миру не остались равнодушными к беде в семье кумира и начали собирать средства, чтобы спасти жизнь Роберту Цою.В прямом эфире телеканала РЕН ТВ и «НАШЕ Радио» отца легендарного музыканта поддержат Диана Арбенина и "Ночные снайперы", Сергей Галанин и группа «Серьга», Гоша Куценко, а также группы «Чайф», «Пилот» и «25/17». Они исполнят любимые песни Виктора Цоя. Свое участие в проекте также подтвердили Армен Григорян - группа «Крематорий», «Сурганова и оркестр», Илья Лагутенко- «Мумий Тролль» и «Наив». В информационной студии РЕН ТВ на связи будет телеведущий Андрей Добров.

MI

General
Complete name                            : D:\Дальше действовать будем мы.2015.SATRip.Files-х.avi
Format                                   : AVI
Format/Info                              : Audio Video Interleave
File size                                : 1.97 GiB
Duration                                 : 2h 42mn
Overall bit rate                         : 1 741 Kbps
Writing application                      : VirtualDubMod 1.5.10.3 | www.virtualdub-fr.org || (build 2550/release)
Writing library                          : VirtualDub build 29808/release
Video
ID                                       : 0
Format                                   : MPEG-4 Visual
Format profile                           : Advanced [email protected]
Format settings, BVOP                    : 1
Format settings, QPel                    : No
Format settings, GMC                     : No warppoints
Format settings, Matrix                  : Custom
Codec ID                                 : XVID
Codec ID/Hint                            : XviD
Duration                                 : 2h 42mn
Bit rate                                 : 1 540 Kbps
Width                                    : 720 pixels
Height                                   : 448 pixels
Display aspect ratio                     : 1.607
Frame rate                               : 25.000 fps
Color space                              : YUV
Chroma subsampling                       : 4:2:0
Bit depth                                : 8 bits
Scan type                                : Progressive
Compression mode                         : Lossy
Bits/(Pixel*Frame)                       : 0.191
Stream size                              : 1.75 GiB (88%)
Writing library                          : XviD 73
Audio
ID                                       : 1
Format                                   : AC-3
Format/Info                              : Audio Coding 3
Mode extension                           : CM (complete main)
Format settings, Endianness              : Big
Codec ID                                 : 2000
Duration                                 : 2h 42mn
Bit rate mode                            : Constant
Bit rate                                 : 192 Kbps
Channel(s)                               : 2 channels
Channel positions                        : Front: L R
Sampling rate                            : 48.0 KHz
Bit depth                                : 16 bits
Compression mode                         : Lossy
Stream size                              : 223 MiB (11%)
Alignment                                : Split accross interleaves
Interleave, duration                     : 40 ms (1.00 video frame)
Interleave, preload duration             : 500 ms

Скриншоты









Последний раз редактировалось: Сергей74 (2015-06-10 13:57), всего редактировалось 1 раз

Создавать темы 10-Июн-2015 12:49

[Профиль]  [ЛС] 

Сергей74 ®

Стаж: 2 года 5 месяцев

Сообщений: 211

Симпатии: 293

aa

Создавать темы 10-Июн-2015 19:43

[Профиль]  [ЛС] 
Показать сообщения:    
Ответить на тему

Текущее время: 20-Сен 19:56

Часовой пояс: UTC + 5



Вы не можете начинать темы
Вы не можете отвечать на сообщения
Вы не можете редактировать свои сообщения
Вы не можете удалять свои сообщения
Вы не можете голосовать в опросах
Вы не можете прикреплять файлы к сообщениям
Вы не можете скачивать файлы